  0
SECTION
  2
HEADER
  9
$EXTMIN
 10
-2340.223876953125
 20
-2543.0256677971643
  9
$EXTMAX
 10
2387.41162109375
 20
409.89786017997676
  9
$DIMASZ
 40
40.0
  9
$DIMTXT
 40
50.0
  0
ENDSEC
  0
SECTION
  2
TABLES
  0
TABLE
  2
LTYPE
 70
  126
  0
LTYPE
  2
CONTINUOUS
 70
   64
  3
Solid line
 72
   65
 73
    0
 40
0.0
  0
LTYPE
  2
HIDDEN
 70
   64
  3
_ _ _ _ _ _ _ _ _ _ _ _ _ _ _ _ _ _ _ _ _ _ _
 72
   65
 73
    2
 40
0.375
 49
0.25
 49
-0.125
  0
LTYPE
  2
CENTER
 70
   64
  3
____ _ ____ _ ____ _ ____ _ ____ _ ____ _ ____
 72
   65
 73
    4
 40
2.0
 49
1.25
 49
-0.25
 49
0.25
 49
-0.25
  0
LTYPE
  2
DASHED
 70
   64
  3
__ __ __ __ __ __ __ __ __ __ __ __ __ __ __
 72
   65
 73
    2
 40
1.5
 49
1.25
 49
-0.25
  0
LTYPE
  2
LT-7
 70
   64
  3
METlt
 72
   65
 73
    6
 40
7.9199998453259468
 49
3.5999999195337296
 49
-1.1999999731779099
 49
0.36000000312924385
 49
-1.1999999731779099
 49
0.36000000312924385
 49
-1.1999999731779099
  0
LTYPE
  2
LT-8
 70
   64
  3
METlt
 72
   65
 73
    4
 40
6.3599998690187931
 49
3.5999999195337296
 49
-1.1999999731779099
 49
0.36000000312924385
 49
-1.1999999731779099
  0
LTYPE
  2
LT-9
 70
   64
  3
METlt
 72
   65
 73
    4
 40
6.3599998690187931
 49
3.5999999195337296
 49
-1.1999999731779099
 49
0.36000000312924385
 49
-1.1999999731779099
  0
LTYPE
  2
LT-10
 70
   64
  3
METlt
 72
   65
 73
    2
 40
5.9999998658895493
 49
3.5999999195337296
 49
-2.3999999463558197
  0
LTYPE
  2
LT-11
 70
   64
  3
METlt
 72
   65
 73
    6
 40
11.159999761730433
 49
3.5999999195337296
 49
-1.1999999731779099
 49
3.5999999195337296
 49
-1.1999999731779099
 49
0.36000000312924385
 49
-1.1999999731779099
  0
LTYPE
  2
LT-12
 70
   64
  3
METlt
 72
   65
 73
    4
 40
3.2399999443441629
 49
1.7999999597668648
 49
-0.59999998658895493
 49
0.24000001139938831
 49
-0.59999998658895493
  0
ENDTAB
  0
TABLE
  2
LAYER
 70
    4
  0
LAYER
  2
lay-0
 70
    0
 62
    7
  6
CONTINUOUS
  0
LAYER
  2
lay-2
 70
    0
 62
    7
  6
CONTINUOUS
  0
LAYER
  2
lay-5
 70
    0
 62
    7
  6
CONTINUOUS
  0
LAYER
  2
lay-6
 70
    0
 62
    7
  6
CONTINUOUS
  0
ENDTAB
  0
TABLE
  2
STYLE
 70
  256
  0
STYLE
  2
STANDARD
 70
   64
 40
0.0
 41
1.0
 50
0.0
 71
    0
 42
20.0
  3
TXT
  4

  0
ENDTAB
  0
ENDSEC
  0
SECTION
  2
BLOCKS
  0
BLOCK
  8
lay-0
  2
*idi234
 70
    1
 10
0.0
 20
0.0
  0
LINE
  8
lay-5
 10
-1.8042140007019043
 20
-1258.2884521484375
 11
-1.8042140007019043
 21
-1375.8929443359375
  0
LINE
  8
lay-5
 10
848.19580078125
 20
-1258.2884521484375
 11
848.19580078125
 21
-1375.8929443359375
  0
LINE
  8
lay-5
 10
-1.8042140007019043
 20
-1365.1749267578125
 11
848.19580078125
 21
-1365.1749267578125
  0
LINE
  8
lay-5
 10
38.195785999298096
 20
-1370.4410266613083
 11
-1.8042140007019043
 21
-1365.1749267578125
  0
LINE
  8
lay-5
 10
-1.8042140007019043
 20
-1365.1749267578125
 11
38.195785999298096
 21
-1359.9088268543167
  0
LINE
  8
lay-5
 10
38.195785999298096
 20
-1359.9088268543167
 11
38.195785999298096
 21
-1370.4410266613083
  0
LINE
  8
lay-5
 10
808.19580078125
 20
-1359.9088268543167
 11
848.19580078125
 21
-1365.1749267578125
  0
LINE
  8
lay-5
 10
848.19580078125
 20
-1365.1749267578125
 11
808.19580078125
 21
-1370.4410266613083
  0
LINE
  8
lay-5
 10
808.19580078125
 20
-1370.4410266613083
 11
808.19580078125
 21
-1359.9088268543167
  0
TEXT
  8
lay-5
 10
353.19580078125
 20
-1340.1749267578125
 40
50.0
  1
850
 41
1.05
  0
ENDBLK
  8
lay-0
  0
BLOCK
  8
lay-0
  2
*idi269
 70
    1
 10
0.0
 20
0.0
  0
LINE
  8
lay-5
 10
-1001.80419921875
 20
-921.2884521484375
 11
-1001.80419921875
 21
-821.3662109375
  0
LINE
  8
lay-5
 10
-951.80419921875
 20
-913.2884521484375
 11
-951.80419921875
 21
-821.3662109375
  0
LINE
  8
lay-5
 10
-1001.80419921875
 20
-832.08416748046875
 11
-951.80419921875
 21
-832.08416748046875
  0
LINE
  8
lay-5
 10
-961.80419921875
 20
-837.35026738396459
 11
-1001.80419921875
 21
-832.08416748046875
  0
LINE
  8
lay-5
 10
-1001.80419921875
 20
-832.08416748046875
 11
-961.80419921875
 21
-826.81806757697291
  0
LINE
  8
lay-5
 10
-961.80419921875
 20
-826.81806757697291
 11
-961.80419921875
 21
-837.35026738396459
  0
LINE
  8
lay-5
 10
-991.80419921875
 20
-826.81806757697291
 11
-951.80419921875
 21
-832.08416748046875
  0
LINE
  8
lay-5
 10
-951.80419921875
 20
-832.08416748046875
 11
-991.80419921875
 21
-837.35026738396459
  0
LINE
  8
lay-5
 10
-991.80419921875
 20
-837.35026738396459
 11
-991.80419921875
 21
-826.81806757697291
  0
TEXT
  8
lay-5
 10
-1020.55419921875
 20
-807.08416748046875
 40
50.0
  1
50
 41
1.05
  0
ENDBLK
  8
lay-0
  0
BLOCK
  8
lay-0
  2
*idi224
 70
    1
 10
0.0
 20
0.0
  0
LINE
  8
lay-5
 10
747.19580078125
 20
-908.2884521484375
 11
1408.4237060546875
 21
-908.2884521484375
  0
LINE
  8
lay-5
 10
848.19580078125
 20
-1258.2884521484375
 11
1408.4237060546875
 21
-1258.2884521484375
  0
LINE
  8
lay-5
 10
1397.7056884765625
 20
-908.2884521484375
 11
1397.7056884765625
 21
-1258.2884521484375
  0
LINE
  8
lay-5
 10
1392.4395885730667
 20
-948.2884521484375
 11
1397.7056884765625
 21
-908.2884521484375
  0
LINE
  8
lay-5
 10
1397.7056884765625
 20
-908.2884521484375
 11
1402.9717883800583
 21
-948.2884521484375
  0
LINE
  8
lay-5
 10
1402.9717883800583
 20
-948.2884521484375
 11
1392.4395885730667
 21
-948.2884521484375
  0
LINE
  8
lay-5
 10
1402.9717883800583
 20
-1218.2884521484375
 11
1397.7056884765625
 21
-1258.2884521484375
  0
LINE
  8
lay-5
 10
1397.7056884765625
 20
-1258.2884521484375
 11
1392.4395885730667
 21
-1218.2884521484375
  0
LINE
  8
lay-5
 10
1392.4395885730667
 20
-1218.2884521484375
 11
1402.9717883800583
 21
-1218.2884521484375
  0
TEXT
  8
lay-5
 10
1500.4068603515625
 20
-1252.77880859375
 40
50.0
  1
120-1000
 50
90.0
 41
1.05
  0
ENDBLK
  8
lay-0
  0
BLOCK
  8
lay-0
  2
*idi239
 70
    1
 10
0.0
 20
0.0
  0
LINE
  8
lay-5
 10
-251.80421447753906
 20
-913.2884521484375
 11
-251.80421447753906
 21
-821.3662109375
  0
LINE
  8
lay-5
 10
-201.80421447753906
 20
-921.2884521484375
 11
-201.80421447753906
 21
-821.3662109375
  0
LINE
  8
lay-5
 10
-251.80421447753906
 20
-832.08416748046875
 11
-201.80421447753906
 21
-832.08416748046875
  0
LINE
  8
lay-5
 10
-211.80421447753906
 20
-837.35026738396459
 11
-251.80421447753906
 21
-832.08416748046875
  0
LINE
  8
lay-5
 10
-251.80421447753906
 20
-832.08416748046875
 11
-211.80421447753906
 21
-826.81806757697291
  0
LINE
  8
lay-5
 10
-211.80421447753906
 20
-826.81806757697291
 11
-211.80421447753906
 21
-837.35026738396459
  0
LINE
  8
lay-5
 10
-241.80421447753906
 20
-826.81806757697291
 11
-201.80421447753906
 21
-832.08416748046875
  0
LINE
  8
lay-5
 10
-201.80421447753906
 20
-832.08416748046875
 11
-241.80421447753906
 21
-837.35026738396459
  0
LINE
  8
lay-5
 10
-241.80421447753906
 20
-837.35026738396459
 11
-241.80421447753906
 21
-826.81806757697291
  0
TEXT
  8
lay-5
 10
-270.55419921875
 20
-807.08416748046875
 40
50.0
  1
50
 41
1.05
  0
ENDBLK
  8
lay-0
  0
BLOCK
  8
lay-0
  2
*idi244
 70
    1
 10
0.0
 20
0.0
  0
LINE
  8
lay-5
 10
773.19580078125
 20
-939.2884521484375
 11
773.19580078125
 21
-821.0975341796875
  0
LINE
  8
lay-5
 10
848.19580078125
 20
-1248.2884521484375
 11
848.19580078125
 21
-821.0975341796875
  0
LINE
  8
lay-5
 10
773.19580078125
 20
-831.81549072265625
 11
848.19580078125
 21
-831.81549072265625
  0
LINE
  8
lay-5
 10
813.19580078125
 20
-837.08159062615209
 11
773.19580078125
 21
-831.81549072265625
  0
LINE
  8
lay-5
 10
773.19580078125
 20
-831.81549072265625
 11
813.19580078125
 21
-826.54939081916041
  0
LINE
  8
lay-5
 10
813.19580078125
 20
-826.54939081916041
 11
813.19580078125
 21
-837.08159062615209
  0
LINE
  8
lay-5
 10
808.19580078125
 20
-826.54939081916041
 11
848.19580078125
 21
-831.81549072265625
  0
LINE
  8
lay-5
 10
848.19580078125
 20
-831.81549072265625
 11
808.19580078125
 21
-837.08159062615209
  0
LINE
  8
lay-5
 10
808.19580078125
 20
-837.08159062615209
 11
808.19580078125
 21
-826.54939081916041
  0
TEXT
  8
lay-5
 10
766.94580078125
 20
-806.81549072265625
 40
50.0
  1
75
 41
1.05
  0
ENDBLK
  8
lay-0
  0
BLOCK
  8
lay-0
  2
*idi249
 70
    1
 10
0.0
 20
0.0
  0
LINE
  8
lay-5
 10
73.195785522460938
 20
-939.2884521484375
 11
73.195785522460938
 21
-821.0975341796875
  0
LINE
  8
lay-5
 10
773.19580078125
 20
-939.2884521484375
 11
773.19580078125
 21
-821.0975341796875
  0
LINE
  8
lay-5
 10
73.195785522460938
 20
-831.81549072265625
 11
773.19580078125
 21
-831.81549072265625
  0
LINE
  8
lay-5
 10
113.19578552246094
 20
-837.08159062615209
 11
73.195785522460938
 21
-831.81549072265625
  0
LINE
  8
lay-5
 10
73.195785522460938
 20
-831.81549072265625
 11
113.19578552246094
 21
-826.54939081916041
  0
LINE
  8
lay-5
 10
113.19578552246094
 20
-826.54939081916041
 11
113.19578552246094
 21
-837.08159062615209
  0
LINE
  8
lay-5
 10
733.19580078125
 20
-826.54939081916041
 11
773.19580078125
 21
-831.81549072265625
  0
LINE
  8
lay-5
 10
773.19580078125
 20
-831.81549072265625
 11
733.19580078125
 21
-837.08159062615209
  0
LINE
  8
lay-5
 10
733.19580078125
 20
-837.08159062615209
 11
733.19580078125
 21
-826.54939081916041
  0
TEXT
  8
lay-5
 10
353.19580078125
 20
-806.81549072265625
 40
50.0
  1
700
 41
1.05
  0
ENDBLK
  8
lay-0
  0
BLOCK
  8
lay-0
  2
*idi254
 70
    1
 10
0.0
 20
0.0
  0
LINE
  8
lay-5
 10
-951.80419921875
 20
-913.2884521484375
 11
-951.80419921875
 21
-821.3662109375
  0
LINE
  8
lay-5
 10
-251.80421447753906
 20
-913.2884521484375
 11
-251.80421447753906
 21
-821.3662109375
  0
LINE
  8
lay-5
 10
-951.80419921875
 20
-832.08416748046875
 11
-251.80421447753906
 21
-832.08416748046875
  0
LINE
  8
lay-5
 10
-911.80419921875
 20
-837.35026738396459
 11
-951.80419921875
 21
-832.08416748046875
  0
LINE
  8
lay-5
 10
-951.80419921875
 20
-832.08416748046875
 11
-911.80419921875
 21
-826.81806757697291
  0
LINE
  8
lay-5
 10
-911.80419921875
 20
-826.81806757697291
 11
-911.80419921875
 21
-837.35026738396459
  0
LINE
  8
lay-5
 10
-291.80421447753906
 20
-826.81806757697291
 11
-251.80421447753906
 21
-832.08416748046875
  0
LINE
  8
lay-5
 10
-251.80421447753906
 20
-832.08416748046875
 11
-291.80421447753906
 21
-837.35026738396459
  0
LINE
  8
lay-5
 10
-291.80421447753906
 20
-837.35026738396459
 11
-291.80421447753906
 21
-826.81806757697291
  0
TEXT
  8
lay-5
 10
-671.80419921875
 20
-807.08416748046875
 40
50.0
  1
700
 41
1.05
  0
ENDBLK
  8
lay-0
  0
BLOCK
  8
lay-0
  2
*idi259
 70
    1
 10
0.0
 20
0.0
  0
LINE
  8
lay-5
 10
-1.8042140007019043
 20
-1248.2884521484375
 11
-1.8042140007019043
 21
-821.0975341796875
  0
LINE
  8
lay-5
 10
73.195785522460938
 20
-939.2884521484375
 11
73.195785522460938
 21
-821.0975341796875
  0
LINE
  8
lay-5
 10
-1.8042140007019043
 20
-831.81549072265625
 11
73.195785522460938
 21
-831.81549072265625
  0
LINE
  8
lay-5
 10
38.195785999298096
 20
-837.08159062615209
 11
-1.8042140007019043
 21
-831.81549072265625
  0
LINE
  8
lay-5
 10
-1.8042140007019043
 20
-831.81549072265625
 11
38.195785999298096
 21
-826.54939081916041
  0
LINE
  8
lay-5
 10
38.195785999298096
 20
-826.54939081916041
 11
38.195785999298096
 21
-837.08159062615209
  0
LINE
  8
lay-5
 10
33.195785522460937
 20
-826.54939081916041
 11
73.195785522460938
 21
-831.81549072265625
  0
LINE
  8
lay-5
 10
73.195785522460938
 20
-831.81549072265625
 11
33.195785522460937
 21
-837.08159062615209
  0
LINE
  8
lay-5
 10
33.195785522460937
 20
-837.08159062615209
 11
33.195785522460937
 21
-826.54939081916041
  0
TEXT
  8
lay-5
 10
-8.0542135238647461
 20
-806.81549072265625
 40
50.0
  1
75
 41
1.05
  0
ENDBLK
  8
lay-0
  0
BLOCK
  8
lay-0
  2
*idi264
 70
    1
 10
0.0
 20
0.0
  0
LINE
  8
lay-5
 10
-1001.80419921875
 20
-1248.2884521484375
 11
-1001.80419921875
 21
-1376.3123779296875
  0
LINE
  8
lay-5
 10
-201.80421447753906
 20
-1248.2884521484375
 11
-201.80421447753906
 21
-1376.3123779296875
  0
LINE
  8
lay-5
 10
-1001.80419921875
 20
-1365.5943603515625
 11
-201.80421447753906
 21
-1365.5943603515625
  0
LINE
  8
lay-5
 10
-961.80419921875
 20
-1370.8604602550583
 11
-1001.80419921875
 21
-1365.5943603515625
  0
LINE
  8
lay-5
 10
-1001.80419921875
 20
-1365.5943603515625
 11
-961.80419921875
 21
-1360.3282604480667
  0
LINE
  8
lay-5
 10
-961.80419921875
 20
-1360.3282604480667
 11
-961.80419921875
 21
-1370.8604602550583
  0
LINE
  8
lay-5
 10
-241.80421447753906
 20
-1360.3282604480667
 11
-201.80421447753906
 21
-1365.5943603515625
  0
LINE
  8
lay-5
 10
-201.80421447753906
 20
-1365.5943603515625
 11
-241.80421447753906
 21
-1370.8604602550583
  0
LINE
  8
lay-5
 10
-241.80421447753906
 20
-1370.8604602550583
 11
-241.80421447753906
 21
-1360.3282604480667
  0
TEXT
  8
lay-5
 10
-671.80419921875
 20
-1340.5943603515625
 40
50.0
  1
800
 41
1.05
  0
ENDBLK
  8
lay-0
  0
ENDSEC
  0
SECTION
  2
ENTITIES
  0
DIMENSION
  8
lay-5
  2
*idi234
 10
848.19580078125
 20
-1365.1749267578125
 11
423.19580078125
 21
-1315.1749267578125
 13
-1.8042139604108542
 23
-1258.2884684232004
 14
848.19578603958939
 24
-1258.2884684232001
  0
DIMENSION
  8
lay-5
  2
*idi269
 10
-951.80419921875
 20
-832.08416748046875
 11
-976.80419921875
 21
-782.08416748046875
 13
-1001.8042139604111
 23
-921.28846842320013
 14
-951.80421396041095
 24
-913.28846842320013
  0
TEXT
  8
lay-6
 10
-2215.4111328125
 20
-1158.50341796875
 40
75.0
  1
FIDECA Typ  8
 41
0.80000000000000004
  0
DIMENSION
  8
lay-5
  2
*idi224
 10
1397.7056884765625
 20
-1258.2884521484375
 11
1475.4068603515625
 21
-1069.02880859375
  1
120-1000
 13
747.19578603958917
 23
-908.28846842320036
 14
848.19578603958939
 24
-1258.2884684232001
 50
90.0
  0
DIMENSION
  8
lay-5
  2
*idi239
 10
-201.80421447753906
 20
-832.08416748046875
 11
-226.80420684814453
 21
-782.08416748046875
 13
-251.80421396041092
 23
-913.28846842320013
 14
-201.80421396041089
 24
-921.28846842320013
  0
LINE
  8
lay-5
 62
    6
 10
68.195786039589137
 20
-939.28846842320036
 11
73.195786039589137
 21
-939.28846842320036
  0
DIMENSION
  8
lay-5
  2
*idi244
 10
848.19580078125
 20
-831.81549072265625
 11
810.69580078125
 21
-781.81549072265625
 13
773.19578603958917
 23
-939.28846842320036
 14
848.19578603958939
 24
-1248.2884684232001
  0
DIMENSION
  8
lay-5
  2
*idi249
 10
773.19580078125
 20
-831.81549072265625
 11
423.19580078125
 21
-781.81549072265625
 13
73.195786039589137
 23
-939.28846842320036
 14
773.19578603958917
 24
-939.28846842320036
  0
DIMENSION
  8
lay-5
  2
*idi254
 10
-251.80421447753906
 20
-832.08416748046875
 11
-601.80419921875
 21
-782.08416748046875
 13
-951.80421396041095
 23
-913.28846842320013
 14
-251.80421396041092
 24
-913.28846842320013
  0
LINE
  8
lay-5
 62
    6
 10
778.19578603958917
 20
-939.28846842320036
 11
773.19578603958917
 21
-939.28846842320036
  0
DIMENSION
  8
lay-5
  2
*idi259
 10
73.195785522460938
 20
-831.81549072265625
 11
35.695785999298096
 21
-781.81549072265625
 13
-1.8042139604108536
 23
-1248.2884684232004
 14
73.195786039589137
 24
-939.28846842320036
  0
LINE
  8
lay-2
 62
    2
 10
-956.80421396041095
 20
-1242.2884684231999
 11
-1001.8042139604109
 21
-1242.2884684231999
  0
LINE
  8
lay-2
 62
    2
 10
-1001.8042139604109
 20
-1242.2884684231999
 11
-1001.8042139604109
 21
-1248.2884684231999
  0
LINE
  8
lay-2
 62
    2
 10
-1001.8042139604109
 20
-1248.2884684231999
 11
-956.80421396041095
 21
-1248.2884684231999
  0
LINE
  8
lay-2
 62
    2
 10
-246.80421396041089
 20
-1242.2884684231999
 11
-201.80421396041089
 21
-1242.2884684231999
  0
LINE
  8
lay-2
 62
    2
 10
-201.80421396041089
 20
-1242.2884684231999
 11
-201.80421396041089
 21
-1248.2884684231999
  0
LINE
  8
lay-2
 62
    2
 10
-201.80421396041089
 20
-1248.2884684231999
 11
-246.80421396041089
 21
-1248.2884684231999
  0
CIRCLE
  8
lay-2
 62
    2
 10
323.19578603958917
 20
-921.28846842320036
 40
3.0
  0
DIMENSION
  8
lay-5
  2
*idi264
 10
-201.80421447753906
 20
-1365.5943603515625
 11
-601.80419921875
 21
-1315.5943603515625
 13
-1001.8042139604109
 23
-1248.2884684231999
 14
-201.80421396041089
 24
-1248.2884684231999
  0
TEXT
  8
lay-6
 10
1562.2911376953125
 20
-1018.625732421875
 40
50.0
  1
L.S. 8 %%c 10 Lg. var.
 41
0.80000000000000004
  0
LINE
  8
lay-2
 62
    2
 10
-956.80421396041106
 20
-918.28846842320013
 11
-1001.8042139604111
 21
-918.28846842320013
  0
LINE
  8
lay-2
 62
    2
 10
-1001.8042139604111
 20
-918.28846842320013
 11
-1001.8042139604111
 21
-924.28846842320013
  0
LINE
  8
lay-2
 62
    2
 10
-1001.8042139604111
 20
-924.28846842320013
 11
-956.80421396041106
 21
-924.28846842320013
  0
LINE
  8
lay-2
 62
    2
 10
-246.80421396041089
 20
-918.28846842320013
 11
-201.80421396041089
 21
-918.28846842320013
  0
LINE
  8
lay-2
 62
    2
 10
-201.80421396041089
 20
-918.28846842320013
 11
-201.80421396041089
 21
-924.28846842320013
  0
LINE
  8
lay-2
 62
    2
 10
-201.80421396041089
 20
-924.28846842320013
 11
-246.80421396041089
 21
-924.28846842320013
  0
CIRCLE
  8
lay-2
 62
    2
 10
123.19578603958919
 20
-921.28846842320036
 40
3.0
  0
LINE
  8
lay-2
 62
    2
 10
-246.80421396041092
 20
-1253.2884683995042
 11
-246.80421396041092
 21
-913.28846839950393
  0
LINE
  8
lay-2
 62
    2
 10
-256.80421396041095
 20
-913.28846834532715
 11
-256.80421396041095
 21
-1253.2884683453274
  0
CIRCLE
  8
lay-2
 62
    2
 10
523.19578603958917
 20
-921.28846842320036
 40
3.0
  0
LINE
  8
lay-2
 62
    2
 10
-236.80421396041092
 20
-1242.2884684232004
 11
-246.80421396041092
 21
-1242.2884684232004
  0
LINE
  8
lay-2
 62
    2
 10
-246.80421396041092
 20
-1248.2884684232004
 11
-236.80421396041092
 21
-1248.2884684232004
  0
LINE
  8
lay-2
 62
    2
 10
-256.80421396041095
 20
-1248.2884684232004
 11
-346.80421396041095
 21
-1248.2884684232004
  0
LINE
  8
lay-2
 62
    2
 10
-256.80421396041095
 20
-1242.2884684232004
 11
-346.80421396041095
 21
-1242.2884684232004
  0
ARC
  8
lay-2
 62
    2
 10
-251.80421396041092
 20
-1253.2884684232004
 40
5.0
 50
179.99999999999966
 51
360.0
  0
LINE
  8
lay-2
 62
    2
 10
-236.80421396041092
 20
-918.28846842320013
 11
-246.80421396041092
 21
-918.28846842320013
  0
LINE
  8
lay-2
 62
    2
 10
-256.80421396041095
 20
-924.28846842320013
 11
-346.80421396041095
 21
-924.28846842320013
  0
LINE
  8
lay-2
 62
    2
 10
-256.80421396041095
 20
-918.28846842320013
 11
-346.80421396041095
 21
-918.28846842320013
  0
CIRCLE
  8
lay-2
 62
    2
 10
-251.80421396041092
 20
-913.28846842320013
 40
5.0
  0
CIRCLE
  8
lay-2
 62
    2
 10
723.19578603958917
 20
-921.28846842320036
 40
3.0
  0
ARC
  8
lay-2
 62
    2
 10
47.195786039589095
 20
-1227.2884684232004
 40
21.0
 50
270.0
 51
360.0
  0
ARC
  8
lay-2
 62
    2
 10
99.195786039589152
 20
-939.28846842320036
 40
21.0
 50
90.0
 51
180.0
  0
LINE
  8
lay-2
 62
    2
 10
99.195786039589152
 20
-918.28846842320036
 11
147.19578603958917
 21
-918.28846842320036
  0
ARC
  8
lay-2
 62
    2
 10
147.19578603958917
 20
-939.28846842320036
 40
21.0
 50
0.0
 51
90.0
  0
ARC
  8
lay-2
 62
    2
 10
199.19578603958911
 20
-1227.2884684232004
 40
21.0
 50
180.0
 51
270.0
  0
LINE
  8
lay-2
 62
    2
 10
68.195786039589137
 20
-939.28846842320036
 11
68.195786039589095
 21
-1227.2884684232004
  0
ARC
  8
lay-2
 62
    2
 10
99.195786039589137
 20
-939.28846842320036
 40
31.0
 50
90.0
 51
180.0
  0
LINE
  8
lay-2
 62
    2
 10
147.19578603958914
 20
-908.28846842320036
 11
99.195786039589137
 21
-908.28846842320036
  0
LINE
  8
lay-2
 62
    2
 10
178.19578603958911
 20
-1227.2884684232004
 11
178.19578603958914
 21
-939.28846842320036
  0
ARC
  8
lay-2
 62
    2
 10
147.19578603958914
 20
-939.28846842320036
 40
31.0
 50
0.0
 51
90.0
  0
LINE
  8
lay-2
 62
    2
 10
168.19578603958917
 20
-939.28846842320036
 11
168.19578603958911
 21
-1227.2884684232004
  0
ARC
  8
lay-2
 62
    2
 10
199.19578603958911
 20
-1227.2884684232004
 40
31.0
 50
180.0
 51
270.0
  0
LINE
  8
lay-2
 62
    2
 10
78.195786039589137
 20
-1227.2884684232004
 11
78.195786039589152
 21
-939.28846842320036
  0
ARC
  8
lay-2
 62
    2
 10
47.19578603958913
 20
-1227.2884684232004
 40
31.0
 50
270.0
 51
360.0
  0
LINE
  8
lay-2
 62
    2
 10
223.19578603958919
 20
-1248.2884684232004
 11
199.19578603958911
 21
-1248.2884684232004
  0
LINE
  8
lay-2
 62
    2
 10
199.19578603958911
 20
-1258.2884684232004
 11
223.19578603958919
 21
-1258.2884684232004
  0
LINE
  8
lay-2
 62
    2
 10
47.195786039589088
 20
-1248.2884684232004
 11
23.195786039589141
 21
-1248.2884684232004
  0
LINE
  8
lay-2
 62
    2
 10
23.195786039589127
 20
-1258.2884684232004
 11
47.19578603958913
 21
-1258.2884684232004
  0
ARC
  8
lay-2
 62
    2
 10
247.19578603958914
 20
-1227.2884684232004
 40
21.0
 50
270.0
 51
360.0
  0
ARC
  8
lay-2
 62
    2
 10
299.19578603958917
 20
-939.28846842320036
 40
21.0
 50
90.0
 51
180.0
  0
LINE
  8
lay-2
 62
    2
 10
299.19578603958917
 20
-918.28846842320036
 11
347.19578603958917
 21
-918.28846842320036
  0
ARC
  8
lay-2
 62
    2
 10
347.19578603958917
 20
-939.28846842320036
 40
21.0
 50
0.0
 51
90.0
  0
ARC
  8
lay-2
 62
    2
 10
399.19578603958905
 20
-1227.2884684232004
 40
21.0
 50
180.0
 51
270.0
  0
LINE
  8
lay-2
 62
    2
 10
268.19578603958917
 20
-939.28846842320036
 11
268.19578603958905
 21
-1227.2884684232004
  0
ARC
  8
lay-2
 62
    2
 10
299.19578603958917
 20
-939.28846842320036
 40
31.0
 50
90.0
 51
180.0
  0
LINE
  8
lay-2
 62
    2
 10
347.19578603958917
 20
-908.28846842320036
 11
299.19578603958917
 21
-908.28846842320036
  0
LINE
  8
lay-2
 62
    2
 10
378.19578603958905
 20
-1227.2884684232004
 11
378.19578603958917
 21
-939.28846842320036
  0
ARC
  8
lay-2
 62
    2
 10
347.19578603958917
 20
-939.28846842320036
 40
31.0
 50
0.0
 51
90.0
  0
LINE
  8
lay-2
 62
    2
 10
368.19578603958917
 20
-939.28846842320036
 11
368.19578603958905
 21
-1227.2884684232004
  0
ARC
  8
lay-2
 62
    2
 10
399.19578603958905
 20
-1227.2884684232004
 40
31.0
 50
180.0
 51
270.0
  0
LINE
  8
lay-2
 62
    2
 10
278.19578603958917
 20
-1227.2884684232004
 11
278.19578603958917
 21
-939.28846842320036
  0
ARC
  8
lay-2
 62
    2
 10
247.19578603958917
 20
-1227.2884684232004
 40
31.0
 50
270.0
 51
360.0
  0
LINE
  8
lay-2
 62
    2
 10
423.19578603958917
 20
-1248.2884684232004
 11
399.19578603958905
 21
-1248.2884684232004
  0
LINE
  8
lay-2
 62
    2
 10
399.19578603958905
 20
-1258.2884684232004
 11
423.19578603958917
 21
-1258.2884684232004
  0
LINE
  8
lay-2
 62
    2
 10
247.19578603958911
 20
-1248.2884684232004
 11
223.19578603958917
 21
-1248.2884684232004
  0
LINE
  8
lay-2
 62
    2
 10
223.19578603958917
 20
-1258.2884684232004
 11
247.19578603958917
 21
-1258.2884684232004
  0
ARC
  8
lay-2
 62
    2
 10
447.19578603958905
 20
-1227.2884684232004
 40
21.0
 50
270.0
 51
360.0
  0
ARC
  8
lay-2
 62
    2
 10
499.19578603958917
 20
-939.28846842320036
 40
21.0
 50
90.0
 51
180.0
  0
LINE
  8
lay-2
 62
    2
 10
499.19578603958917
 20
-918.28846842320036
 11
547.19578603958917
 21
-918.28846842320036
  0
ARC
  8
lay-2
 62
    2
 10
547.19578603958917
 20
-939.28846842320036
 40
21.0
 50
0.0
 51
90.0
  0
ARC
  8
lay-2
 62
    2
 10
599.19578603958905
 20
-1227.2884684232004
 40
21.0
 50
180.0
 51
270.0
  0
LINE
  8
lay-2
 62
    2
 10
468.19578603958917
 20
-939.28846842320036
 11
468.19578603958905
 21
-1227.2884684232004
  0
ARC
  8
lay-2
 62
    2
 10
499.19578603958917
 20
-939.28846842320036
 40
31.0
 50
90.0
 51
180.0
  0
LINE
  8
lay-2
 62
    2
 10
547.19578603958917
 20
-908.28846842320036
 11
499.19578603958917
 21
-908.28846842320036
  0
LINE
  8
lay-2
 62
    2
 10
578.19578603958905
 20
-1227.2884684232004
 11
578.19578603958917
 21
-939.28846842320036
  0
ARC
  8
lay-2
 62
    2
 10
547.19578603958917
 20
-939.28846842320036
 40
31.0
 50
0.0
 51
90.0
  0
LINE
  8
lay-2
 62
    2
 10
568.19578603958917
 20
-939.28846842320036
 11
568.19578603958905
 21
-1227.2884684232004
  0
ARC
  8
lay-2
 62
    2
 10
599.19578603958905
 20
-1227.2884684232004
 40
31.0
 50
180.0
 51
270.0
  0
LINE
  8
lay-2
 62
    2
 10
478.19578603958917
 20
-1227.2884684232004
 11
478.19578603958917
 21
-939.28846842320036
  0
ARC
  8
lay-2
 62
    2
 10
447.19578603958911
 20
-1227.2884684232004
 40
31.0
 50
270.0
 51
360.0
  0
LINE
  8
lay-2
 62
    2
 10
623.19578603958917
 20
-1248.2884684232004
 11
599.19578603958905
 21
-1248.2884684232004
  0
LINE
  8
lay-2
 62
    2
 10
599.19578603958905
 20
-1258.2884684232004
 11
623.19578603958917
 21
-1258.2884684232004
  0
LINE
  8
lay-2
 62
    2
 10
447.19578603958905
 20
-1248.2884684232004
 11
423.19578603958911
 21
-1248.2884684232004
  0
LINE
  8
lay-2
 62
    2
 10
423.19578603958911
 20
-1258.2884684232004
 11
447.19578603958911
 21
-1258.2884684232004
  0
ARC
  8
lay-2
 62
    2
 10
647.19578603958905
 20
-1227.2884684232004
 40
21.0
 50
270.0
 51
360.0
  0
ARC
  8
lay-2
 62
    2
 10
699.19578603958917
 20
-939.28846842320036
 40
21.0
 50
90.0
 51
180.0
  0
LINE
  8
lay-2
 62
    2
 10
699.19578603958917
 20
-918.28846842320036
 11
747.19578603958917
 21
-918.28846842320036
  0
ARC
  8
lay-2
 62
    2
 10
747.19578603958917
 20
-939.28846842320036
 40
21.0
 50
0.0
 51
90.0
  0
ARC
  8
lay-2
 62
    2
 10
799.19578603958905
 20
-1227.2884684232004
 40
21.0
 50
180.0
 51
270.0
  0
LINE
  8
lay-2
 62
    2
 10
668.19578603958917
 20
-939.28846842320036
 11
668.19578603958905
 21
-1227.2884684232004
  0
ARC
  8
lay-2
 62
    2
 10
699.19578603958917
 20
-939.28846842320036
 40
31.0
 50
90.0
 51
180.0
  0
LINE
  8
lay-2
 62
    2
 10
747.19578603958917
 20
-908.28846842320036
 11
699.19578603958917
 21
-908.28846842320036
  0
LINE
  8
lay-2
 62
    2
 10
778.19578603958905
 20
-1227.2884684232004
 11
778.19578603958917
 21
-939.28846842320036
  0
ARC
  8
lay-2
 62
    2
 10
747.19578603958917
 20
-939.28846842320036
 40
31.0
 50
0.0
 51
90.0
  0
LINE
  8
lay-2
 62
    2
 10
768.19578603958917
 20
-939.28846842320036
 11
768.19578603958905
 21
-1227.2884684232004
  0
ARC
  8
lay-2
 62
    2
 10
799.19578603958905
 20
-1227.2884684232004
 40
31.0
 50
180.0
 51
270.0
  0
LINE
  8
lay-2
 62
    2
 10
678.19578603958917
 20
-1227.2884684232004
 11
678.19578603958917
 21
-939.28846842320036
  0
ARC
  8
lay-2
 62
    2
 10
647.19578603958917
 20
-1227.2884684232004
 40
31.0
 50
270.0
 51
360.0
  0
LINE
  8
lay-2
 62
    2
 10
823.19578603958917
 20
-1248.2884684232004
 11
799.19578603958905
 21
-1248.2884684232004
  0
LINE
  8
lay-2
 62
    2
 10
799.19578603958905
 20
-1258.2884684232004
 11
823.19578603958917
 21
-1258.2884684232004
  0
LINE
  8
lay-2
 62
    2
 10
647.19578603958905
 20
-1248.2884684232004
 11
623.19578603958917
 21
-1248.2884684232004
  0
LINE
  8
lay-2
 62
    2
 10
623.19578603958905
 20
-1258.2884684232004
 11
647.19578603958917
 21
-1258.2884684232004
  0
LINE
  8
lay-2
 62
    2
 10
-346.80421396041095
 20
-1253.2884683995042
 11
-346.80421396041095
 21
-913.28846839950393
  0
LINE
  8
lay-2
 62
    2
 10
-356.80421396041095
 20
-913.28846834532715
 11
-356.80421396041095
 21
-1253.2884683453274
  0
LINE
  8
lay-2
 62
    2
 10
-356.80421396041095
 20
-1248.2884684232004
 11
-446.80421396041095
 21
-1248.2884684232004
  0
LINE
  8
lay-2
 62
    2
 10
-356.80421396041095
 20
-1242.2884684232004
 11
-446.80421396041095
 21
-1242.2884684232004
  0
ARC
  8
lay-2
 62
    2
 10
-351.80421396041095
 20
-1253.2884684232004
 40
5.0
 50
179.99999999999966
 51
360.0
  0
LINE
  8
lay-2
 62
    2
 10
-356.80421396041095
 20
-924.28846842320013
 11
-446.80421396041095
 21
-924.28846842320013
  0
LINE
  8
lay-2
 62
    2
 10
-356.80421396041095
 20
-918.28846842320013
 11
-446.80421396041095
 21
-918.28846842320013
  0
CIRCLE
  8
lay-2
 62
    2
 10
-351.80421396041095
 20
-913.28846842320013
 40
5.0
  0
LINE
  8
lay-2
 62
    2
 10
23.195786039589144
 20
-1258.2884684232004
 11
-1.8042139604108542
 21
-1258.2884684232004
  0
LINE
  8
lay-2
 62
    2
 10
-1.8042139604108542
 20
-1258.2884684232004
 11
-1.8042139604108536
 21
-1248.2884684232004
  0
LINE
  8
lay-2
 62
    2
 10
-1.8042139604108547
 20
-1248.2884684232004
 11
23.195786039589144
 21
-1248.2884684232004
  0
LINE
  8
lay-2
 62
    2
 10
823.19578603958939
 20
-1258.2884684232001
 11
848.19578603958939
 21
-1258.2884684232001
  0
LINE
  8
lay-2
 62
    2
 10
848.19578603958939
 20
-1258.2884684232001
 11
848.19578603958939
 21
-1248.2884684232001
  0
LINE
  8
lay-2
 62
    2
 10
848.19578603958939
 20
-1248.2884684232001
 11
823.19578603958939
 21
-1248.2884684232001
  0
CIRCLE
  8
lay-2
 62
    2
 10
223.19578603958934
 20
-1245.2884684232004
 40
3.0
  0
CIRCLE
  8
lay-2
 62
    2
 10
23.195786039589329
 20
-1245.2884684232004
 40
3.0
  0
CIRCLE
  8
lay-2
 62
    2
 10
423.19578603958928
 20
-1245.2884684232004
 40
3.0
  0
CIRCLE
  8
lay-2
 62
    2
 10
623.19578603958928
 20
-1245.2884684232004
 40
3.0
  0
CIRCLE
  8
lay-2
 62
    2
 10
823.19578603958928
 20
-1245.2884684232004
 40
3.0
  0
LINE
  8
lay-2
 62
    2
 10
-966.80421396041106
 20
-1242.2884684232004
 11
-956.80421396041106
 21
-1242.2884684232004
  0
LINE
  8
lay-2
 62
    2
 10
-956.80421396041106
 20
-1248.2884684232004
 11
-966.80421396041106
 21
-1248.2884684232004
  0
LINE
  8
lay-2
 62
    2
 10
-966.80421396041106
 20
-918.28846842320013
 11
-956.80421396041106
 21
-918.28846842320013
  0
LINE
  8
lay-2
 62
    2
 10
-446.80421396041095
 20
-1253.2884683995042
 11
-446.80421396041095
 21
-913.28846839950393
  0
LINE
  8
lay-2
 62
    2
 10
-456.80421396041095
 20
-913.28846834532715
 11
-456.80421396041095
 21
-1253.2884683453274
  0
LINE
  8
lay-2
 62
    2
 10
-456.80421396041095
 20
-1248.2884684232004
 11
-546.80421396041095
 21
-1248.2884684232004
  0
LINE
  8
lay-2
 62
    2
 10
-456.80421396041095
 20
-1242.2884684232004
 11
-546.80421396041095
 21
-1242.2884684232004
  0
ARC
  8
lay-2
 62
    2
 10
-451.80421396041095
 20
-1253.2884684232004
 40
5.0
 50
179.99999999999966
 51
360.0
  0
LINE
  8
lay-2
 62
    2
 10
-456.80421396041095
 20
-924.28846842320013
 11
-546.80421396041095
 21
-924.28846842320013
  0
LINE
  8
lay-2
 62
    2
 10
-456.80421396041095
 20
-918.28846842320013
 11
-546.80421396041095
 21
-918.28846842320013
  0
CIRCLE
  8
lay-2
 62
    2
 10
-451.80421396041095
 20
-913.28846842320013
 40
5.0
  0
LINE
  8
lay-2
 62
    2
 10
-546.80421396041095
 20
-1253.2884683995042
 11
-546.80421396041095
 21
-913.28846839950393
  0
LINE
  8
lay-2
 62
    2
 10
-556.80421396041095
 20
-913.28846834532715
 11
-556.80421396041095
 21
-1253.2884683453274
  0
LINE
  8
lay-2
 62
    2
 10
-556.80421396041095
 20
-1248.2884684232004
 11
-646.80421396041095
 21
-1248.2884684232004
  0
LINE
  8
lay-2
 62
    2
 10
-556.80421396041095
 20
-1242.2884684232004
 11
-646.80421396041095
 21
-1242.2884684232004
  0
ARC
  8
lay-2
 62
    2
 10
-551.80421396041095
 20
-1253.2884684232004
 40
5.0
 50
179.99999999999966
 51
360.0
  0
LINE
  8
lay-2
 62
    2
 10
-556.80421396041095
 20
-924.28846842320013
 11
-646.80421396041095
 21
-924.28846842320013
  0
LINE
  8
lay-2
 62
    2
 10
-556.80421396041095
 20
-918.28846842320013
 11
-646.80421396041095
 21
-918.28846842320013
  0
CIRCLE
  8
lay-2
 62
    2
 10
-551.80421396041095
 20
-913.28846842320013
 40
5.0
  0
LINE
  8
lay-2
 62
    2
 10
-646.80421396041095
 20
-1253.2884683995042
 11
-646.80421396041095
 21
-913.28846839950393
  0
LINE
  8
lay-2
 62
    2
 10
-656.80421396041095
 20
-913.28846834532715
 11
-656.80421396041095
 21
-1253.2884683453274
  0
LINE
  8
lay-2
 62
    2
 10
-656.80421396041095
 20
-1248.2884684232004
 11
-746.80421396041095
 21
-1248.2884684232004
  0
LINE
  8
lay-2
 62
    2
 10
-656.80421396041095
 20
-1242.2884684232004
 11
-746.80421396041095
 21
-1242.2884684232004
  0
ARC
  8
lay-2
 62
    2
 10
-651.80421396041095
 20
-1253.2884684232004
 40
5.0
 50
179.99999999999966
 51
360.0
  0
LINE
  8
lay-2
 62
    2
 10
-656.80421396041095
 20
-924.28846842320013
 11
-746.80421396041095
 21
-924.28846842320013
  0
LINE
  8
lay-2
 62
    2
 10
-656.80421396041095
 20
-918.28846842320013
 11
-746.80421396041095
 21
-918.28846842320013
  0
CIRCLE
  8
lay-2
 62
    2
 10
-651.80421396041095
 20
-913.28846842320013
 40
5.0
  0
LINE
  8
lay-2
 62
    2
 10
-746.80421396041095
 20
-1253.2884683995042
 11
-746.80421396041095
 21
-913.28846839950393
  0
LINE
  8
lay-2
 62
    2
 10
-756.80421396041095
 20
-913.28846834532715
 11
-756.80421396041095
 21
-1253.2884683453274
  0
LINE
  8
lay-2
 62
    2
 10
-756.80421396041095
 20
-1248.2884684232004
 11
-846.80421396041095
 21
-1248.2884684232004
  0
LINE
  8
lay-2
 62
    2
 10
-756.80421396041095
 20
-1242.2884684232004
 11
-846.80421396041095
 21
-1242.2884684232004
  0
ARC
  8
lay-2
 62
    2
 10
-751.80421396041095
 20
-1253.2884684232004
 40
5.0
 50
179.99999999999966
 51
360.0
  0
LINE
  8
lay-2
 62
    2
 10
-756.80421396041095
 20
-924.28846842320013
 11
-846.80421396041095
 21
-924.28846842320013
  0
LINE
  8
lay-2
 62
    2
 10
-756.80421396041095
 20
-918.28846842320013
 11
-846.80421396041095
 21
-918.28846842320013
  0
CIRCLE
  8
lay-2
 62
    2
 10
-751.80421396041095
 20
-913.28846842320013
 40
5.0
  0
LINE
  8
lay-2
 62
    2
 10
-846.80421396041095
 20
-1253.2884683995042
 11
-846.80421396041095
 21
-913.28846839950393
  0
LINE
  8
lay-2
 62
    2
 10
-856.80421396041095
 20
-913.28846834532715
 11
-856.80421396041095
 21
-1253.2884683453274
  0
LINE
  8
lay-2
 62
    2
 10
-856.80421396041095
 20
-1248.2884684232004
 11
-946.80421396041095
 21
-1248.2884684232004
  0
LINE
  8
lay-2
 62
    2
 10
-856.80421396041095
 20
-1242.2884684232004
 11
-946.80421396041095
 21
-1242.2884684232004
  0
ARC
  8
lay-2
 62
    2
 10
-851.80421396041095
 20
-1253.2884684232004
 40
5.0
 50
179.99999999999966
 51
360.0
  0
LINE
  8
lay-2
 62
    2
 10
-856.80421396041095
 20
-924.28846842320013
 11
-946.80421396041095
 21
-924.28846842320013
  0
LINE
  8
lay-2
 62
    2
 10
-856.80421396041095
 20
-918.28846842320013
 11
-946.80421396041095
 21
-918.28846842320013
  0
CIRCLE
  8
lay-2
 62
    2
 10
-851.80421396041095
 20
-913.28846842320013
 40
5.0
  0
LINE
  8
lay-2
 62
    2
 10
-946.80421396041095
 20
-1253.2884683995042
 11
-946.80421396041095
 21
-913.28846839950393
  0
LINE
  8
lay-2
 62
    2
 10
-956.80421396041095
 20
-913.28846834532715
 11
-956.80421396041095
 21
-1253.2884683453274
  0
ARC
  8
lay-2
 62
    2
 10
-951.80421396041095
 20
-1253.2884684232004
 40
5.0
 50
179.99999999999966
 51
360.0
  0
CIRCLE
  8
lay-2
 62
    2
 10
-951.80421396041095
 20
-913.28846842320013
 40
5.0
  0
TEXT
  8
lay-6
 10
1557.082275390625
 20
-1160.005126953125
 40
50.0
  1
Q.S. 9 %%c 6 Lg. 800mm
 41
0.80000000000000004
  0
ENDSEC
  0
EOF
