  0
SECTION
  2
HEADER
  9
$EXTMIN
 10
-2340.2238830566407
 20
-2545.9304567657246
  9
$EXTMAX
 10
2387.4116271972657
 20
406.99307883603728
  9
$DIMASZ
 40
40.0
  9
$DIMTXT
 40
50.0
  0
ENDSEC
  0
SECTION
  2
TABLES
  0
TABLE
  2
LTYPE
 70
  126
  0
LTYPE
  2
CONTINUOUS
 70
   64
  3
Solid line
 72
   65
 73
    0
 40
0.0
  0
LTYPE
  2
HIDDEN
 70
   64
  3
_ _ _ _ _ _ _ _ _ _ _ _ _ _ _ _ _ _ _ _ _ _ _
 72
   65
 73
    2
 40
0.375
 49
0.25
 49
-0.125
  0
LTYPE
  2
CENTER
 70
   64
  3
____ _ ____ _ ____ _ ____ _ ____ _ ____ _ ____
 72
   65
 73
    4
 40
2.0
 49
1.25
 49
-0.25
 49
0.25
 49
-0.25
  0
LTYPE
  2
DASHED
 70
   64
  3
__ __ __ __ __ __ __ __ __ __ __ __ __ __ __
 72
   65
 73
    2
 40
1.5
 49
1.25
 49
-0.25
  0
LTYPE
  2
LT-7
 70
   64
  3
METlt
 72
   65
 73
    6
 40
7.9199998453259468
 49
3.5999999195337296
 49
-1.1999999731779099
 49
0.36000000312924385
 49
-1.1999999731779099
 49
0.36000000312924385
 49
-1.1999999731779099
  0
LTYPE
  2
LT-8
 70
   64
  3
METlt
 72
   65
 73
    4
 40
6.3599998690187931
 49
3.5999999195337296
 49
-1.1999999731779099
 49
0.36000000312924385
 49
-1.1999999731779099
  0
LTYPE
  2
LT-9
 70
   64
  3
METlt
 72
   65
 73
    4
 40
6.3599998690187931
 49
3.5999999195337296
 49
-1.1999999731779099
 49
0.36000000312924385
 49
-1.1999999731779099
  0
LTYPE
  2
LT-10
 70
   64
  3
METlt
 72
   65
 73
    4
 40
6.3599998690187931
 49
3.5999999195337296
 49
-1.1999999731779099
 49
0.36000000312924385
 49
-1.1999999731779099
  0
LTYPE
  2
LT-11
 70
   64
  3
METlt
 72
   65
 73
    2
 40
5.9999998658895493
 49
3.5999999195337296
 49
-2.3999999463558197
  0
LTYPE
  2
LT-12
 70
   64
  3
METlt
 72
   65
 73
    6
 40
11.159999761730433
 49
3.5999999195337296
 49
-1.1999999731779099
 49
3.5999999195337296
 49
-1.1999999731779099
 49
0.36000000312924385
 49
-1.1999999731779099
  0
LTYPE
  2
LT-13
 70
   64
  3
METlt
 72
   65
 73
    4
 40
3.2399999443441629
 49
1.7999999597668648
 49
-0.59999998658895493
 49
0.24000001139938831
 49
-0.59999998658895493
  0
ENDTAB
  0
TABLE
  2
LAYER
 70
    4
  0
LAYER
  2
lay-0
 70
    0
 62
    7
  6
CONTINUOUS
  0
LAYER
  2
lay-2
 70
    0
 62
    7
  6
CONTINUOUS
  0
LAYER
  2
lay-5
 70
    0
 62
    7
  6
CONTINUOUS
  0
LAYER
  2
lay-6
 70
    0
 62
    7
  6
CONTINUOUS
  0
ENDTAB
  0
TABLE
  2
STYLE
 70
  256
  0
STYLE
  2
STANDARD
 70
   64
 40
0.0
 41
1.0
 50
0.0
 71
    0
 42
20.0
  3
TXT
  4

  0
ENDTAB
  0
ENDSEC
  0
SECTION
  2
BLOCKS
  0
BLOCK
  8
lay-0
  2
*idi199
 70
    1
 10
0.0
 20
0.0
  0
LINE
  8
lay-5
 10
-1001.80419921875
 20
-1248.2884521484375
 11
-1001.80419921875
 21
-1381.233642578125
  0
LINE
  8
lay-5
 10
-301.80419921875
 20
-1248.2884521484375
 11
-301.80419921875
 21
-1381.233642578125
  0
LINE
  8
lay-5
 10
-1001.80419921875
 20
-1370.515625
 11
-301.80419921875
 21
-1370.515625
  0
LINE
  8
lay-5
 10
-961.80419921875
 20
-1375.7817249034958
 11
-1001.80419921875
 21
-1370.515625
  0
LINE
  8
lay-5
 10
-1001.80419921875
 20
-1370.515625
 11
-961.80419921875
 21
-1365.2495250965042
  0
LINE
  8
lay-5
 10
-961.80419921875
 20
-1365.2495250965042
 11
-961.80419921875
 21
-1375.7817249034958
  0
LINE
  8
lay-5
 10
-341.80419921875
 20
-1365.2495250965042
 11
-301.80419921875
 21
-1370.515625
  0
LINE
  8
lay-5
 10
-301.80419921875
 20
-1370.515625
 11
-341.80419921875
 21
-1375.7817249034958
  0
LINE
  8
lay-5
 10
-341.80419921875
 20
-1375.7817249034958
 11
-341.80419921875
 21
-1365.2495250965042
  0
TEXT
  8
lay-5
 10
-721.80419921875
 20
-1345.515625
 40
50.0
  1
700
 41
1.05
  0
ENDBLK
  8
lay-0
  0
BLOCK
  8
lay-0
  2
*idi8
 70
    1
 10
0.0
 20
0.0
  0
LINE
  8
lay-5
 10
-1.8042140007019043
 20
-1258.2884521484375
 11
-1.8042140007019043
 21
-1386.714599609375
  0
LINE
  8
lay-5
 10
747.69586181640625
 20
-908.29248046875
 11
747.69586181640625
 21
-1386.714599609375
  0
LINE
  8
lay-5
 10
-1.8042140007019043
 20
-1375.99658203125
 11
747.69586181640625
 21
-1375.99658203125
  0
LINE
  8
lay-5
 10
38.195785999298096
 20
-1381.2626819347458
 11
-1.8042140007019043
 21
-1375.99658203125
  0
LINE
  8
lay-5
 10
-1.8042140007019043
 20
-1375.99658203125
 11
38.195785999298096
 21
-1370.7304821277542
  0
LINE
  8
lay-5
 10
38.195785999298096
 20
-1370.7304821277542
 11
38.195785999298096
 21
-1381.2626819347458
  0
LINE
  8
lay-5
 10
707.69586181640625
 20
-1370.7304821277542
 11
747.69586181640625
 21
-1375.99658203125
  0
LINE
  8
lay-5
 10
747.69586181640625
 20
-1375.99658203125
 11
707.69586181640625
 21
-1381.2626819347458
  0
LINE
  8
lay-5
 10
707.69586181640625
 20
-1381.2626819347458
 11
707.69586181640625
 21
-1370.7304821277542
  0
TEXT
  8
lay-5
 10
302.94583129882812
 20
-1350.99658203125
 40
50.0
  1
750
 41
1.05
  0
ENDBLK
  8
lay-0
  0
BLOCK
  8
lay-0
  2
*idi14
 70
    1
 10
0.0
 20
0.0
  0
LINE
  8
lay-5
 10
748.19580078125
 20
-908.30462646484375
 11
986.47271728515625
 21
-908.30462646484375
  0
LINE
  8
lay-5
 10
647.19580078125
 20
-1258.2884521484375
 11
986.47271728515625
 21
-1258.2884521484375
  0
LINE
  8
lay-5
 10
975.7547607421875
 20
-908.30462646484375
 11
975.7547607421875
 21
-1258.2884521484375
  0
LINE
  8
lay-5
 10
970.48866083869166
 20
-948.30462646484375
 11
975.7547607421875
 21
-908.30462646484375
  0
LINE
  8
lay-5
 10
975.7547607421875
 20
-908.30462646484375
 11
981.02086064568334
 21
-948.30462646484375
  0
LINE
  8
lay-5
 10
981.02086064568334
 20
-948.30462646484375
 11
970.48866083869166
 21
-948.30462646484375
  0
LINE
  8
lay-5
 10
981.02086064568334
 20
-1218.2884521484375
 11
975.7547607421875
 21
-1258.2884521484375
  0
LINE
  8
lay-5
 10
975.7547607421875
 20
-1258.2884521484375
 11
970.48866083869166
 21
-1218.2884521484375
  0
LINE
  8
lay-5
 10
970.48866083869166
 20
-1218.2884521484375
 11
981.02086064568334
 21
-1218.2884521484375
  0
TEXT
  8
lay-5
 10
950.7547607421875
 20
-1267.0465087890625
 40
50.0
  1
120-1000
 50
90.0
 41
1.05
  0
ENDBLK
  8
lay-0
  0
BLOCK
  8
lay-0
  2
*idi204
 70
    1
 10
0.0
 20
0.0
  0
LINE
  8
lay-5
 10
-1001.80419921875
 20
-921.2884521484375
 11
-1001.80419921875
 21
-821.3662109375
  0
LINE
  8
lay-5
 10
-951.80419921875
 20
-913.2884521484375
 11
-951.80419921875
 21
-821.3662109375
  0
LINE
  8
lay-5
 10
-1001.80419921875
 20
-832.08416748046875
 11
-951.80419921875
 21
-832.08416748046875
  0
LINE
  8
lay-5
 10
-961.80419921875
 20
-837.35026738396459
 11
-1001.80419921875
 21
-832.08416748046875
  0
LINE
  8
lay-5
 10
-1001.80419921875
 20
-832.08416748046875
 11
-961.80419921875
 21
-826.81806757697291
  0
LINE
  8
lay-5
 10
-961.80419921875
 20
-826.81806757697291
 11
-961.80419921875
 21
-837.35026738396459
  0
LINE
  8
lay-5
 10
-991.80419921875
 20
-826.81806757697291
 11
-951.80419921875
 21
-832.08416748046875
  0
LINE
  8
lay-5
 10
-951.80419921875
 20
-832.08416748046875
 11
-991.80419921875
 21
-837.35026738396459
  0
LINE
  8
lay-5
 10
-991.80419921875
 20
-837.35026738396459
 11
-991.80419921875
 21
-826.81806757697291
  0
TEXT
  8
lay-5
 10
-1020.55419921875
 20
-807.08416748046875
 40
50.0
  1
50
 41
1.05
  0
ENDBLK
  8
lay-0
  0
BLOCK
  8
lay-0
  2
*idi173
 70
    1
 10
0.0
 20
0.0
  0
LINE
  8
lay-5
 10
-951.80419921875
 20
-913.2884521484375
 11
-951.80419921875
 21
-820.05877685546875
  0
LINE
  8
lay-5
 10
-350.508544921875
 20
-854.9420166015625
 11
-350.508544921875
 21
-820.05877685546875
  0
LINE
  8
lay-5
 10
-951.80419921875
 20
-830.7767333984375
 11
-350.508544921875
 21
-830.7767333984375
  0
LINE
  8
lay-5
 10
-911.80419921875
 20
-836.04283330193334
 11
-951.80419921875
 21
-830.7767333984375
  0
LINE
  8
lay-5
 10
-951.80419921875
 20
-830.7767333984375
 11
-911.80419921875
 21
-825.51063349494166
  0
LINE
  8
lay-5
 10
-911.80419921875
 20
-825.51063349494166
 11
-911.80419921875
 21
-836.04283330193334
  0
LINE
  8
lay-5
 10
-390.508544921875
 20
-825.51063349494166
 11
-350.508544921875
 21
-830.7767333984375
  0
LINE
  8
lay-5
 10
-350.508544921875
 20
-830.7767333984375
 11
-390.508544921875
 21
-836.04283330193334
  0
LINE
  8
lay-5
 10
-390.508544921875
 20
-836.04283330193334
 11
-390.508544921875
 21
-825.51063349494166
  0
TEXT
  8
lay-5
 10
-721.1563720703125
 20
-805.7767333984375
 40
50.0
  1
600
 41
1.05
  0
ENDBLK
  8
lay-0
  0
BLOCK
  8
lay-0
  2
*idi178
 70
    1
 10
0.0
 20
0.0
  0
LINE
  8
lay-5
 10
-350.508544921875
 20
-854.9420166015625
 11
-350.508544921875
 21
-820.05877685546875
  0
LINE
  8
lay-5
 10
-301.80419921875
 20
-918.2884521484375
 11
-301.80419921875
 21
-820.05877685546875
  0
LINE
  8
lay-5
 10
-350.508544921875
 20
-830.7767333984375
 11
-301.80419921875
 21
-830.7767333984375
  0
LINE
  8
lay-5
 10
-310.508544921875
 20
-836.04283330193334
 11
-350.508544921875
 21
-830.7767333984375
  0
LINE
  8
lay-5
 10
-350.508544921875
 20
-830.7767333984375
 11
-310.508544921875
 21
-825.51063349494166
  0
LINE
  8
lay-5
 10
-310.508544921875
 20
-825.51063349494166
 11
-310.508544921875
 21
-836.04283330193334
  0
LINE
  8
lay-5
 10
-341.80419921875
 20
-825.51063349494166
 11
-301.80419921875
 21
-830.7767333984375
  0
LINE
  8
lay-5
 10
-301.80419921875
 20
-830.7767333984375
 11
-341.80419921875
 21
-836.04283330193334
  0
LINE
  8
lay-5
 10
-341.80419921875
 20
-836.04283330193334
 11
-341.80419921875
 21
-825.51063349494166
  0
TEXT
  8
lay-5
 10
-369.9063720703125
 20
-805.7767333984375
 40
50.0
  1
50
 41
1.05
  0
ENDBLK
  8
lay-0
  0
BLOCK
  8
lay-0
  2
*idi184
 70
    1
 10
0.0
 20
0.0
  0
LINE
  8
lay-5
 10
-1.8042140007019043
 20
-1375.99658203125
 11
-1.8042140007019043
 21
-816.50482177734375
  0
LINE
  8
lay-5
 10
73.195785522460938
 20
-939.2884521484375
 11
73.195785522460938
 21
-816.50482177734375
  0
LINE
  8
lay-5
 10
-1.8042140007019043
 20
-827.2227783203125
 11
73.195785522460938
 21
-827.2227783203125
  0
LINE
  8
lay-5
 10
38.195785999298096
 20
-832.48887822380834
 11
-1.8042140007019043
 21
-827.2227783203125
  0
LINE
  8
lay-5
 10
-1.8042140007019043
 20
-827.2227783203125
 11
38.195785999298096
 21
-821.95667841681666
  0
LINE
  8
lay-5
 10
38.195785999298096
 20
-821.95667841681666
 11
38.195785999298096
 21
-832.48887822380834
  0
LINE
  8
lay-5
 10
33.195785522460937
 20
-821.95667841681666
 11
73.195785522460938
 21
-827.2227783203125
  0
LINE
  8
lay-5
 10
73.195785522460938
 20
-827.2227783203125
 11
33.195785522460937
 21
-832.48887822380834
  0
LINE
  8
lay-5
 10
33.195785522460937
 20
-832.48887822380834
 11
33.195785522460937
 21
-821.95667841681666
  0
TEXT
  8
lay-5
 10
-8.0542135238647461
 20
-802.2227783203125
 40
50.0
  1
75
 41
1.05
  0
ENDBLK
  8
lay-0
  0
BLOCK
  8
lay-0
  2
*idi189
 70
    1
 10
0.0
 20
0.0
  0
LINE
  8
lay-5
 10
73.195785522460938
 20
-939.2884521484375
 11
73.195785522460938
 21
-816.50482177734375
  0
LINE
  8
lay-5
 10
675.52728271484375
 20
-807.116943359375
 11
675.52728271484375
 21
-837.94073486328125
  0
LINE
  8
lay-5
 10
73.195785522460938
 20
-827.2227783203125
 11
675.52728271484375
 21
-827.2227783203125
  0
LINE
  8
lay-5
 10
113.19578552246094
 20
-832.48887822380834
 11
73.195785522460938
 21
-827.2227783203125
  0
LINE
  8
lay-5
 10
73.195785522460938
 20
-827.2227783203125
 11
113.19578552246094
 21
-821.95667841681666
  0
LINE
  8
lay-5
 10
113.19578552246094
 20
-821.95667841681666
 11
113.19578552246094
 21
-832.48887822380834
  0
LINE
  8
lay-5
 10
635.52728271484375
 20
-821.95667841681666
 11
675.52728271484375
 21
-827.2227783203125
  0
LINE
  8
lay-5
 10
675.52728271484375
 20
-827.2227783203125
 11
635.52728271484375
 21
-832.48887822380834
  0
LINE
  8
lay-5
 10
635.52728271484375
 20
-832.48887822380834
 11
635.52728271484375
 21
-821.95667841681666
  0
TEXT
  8
lay-5
 10
304.36154174804687
 20
-802.2227783203125
 40
50.0
  1
600
 41
1.05
  0
ENDBLK
  8
lay-0
  0
BLOCK
  8
lay-0
  2
*idi194
 70
    1
 10
0.0
 20
0.0
  0
LINE
  8
lay-5
 10
675.52728271484375
 20
-807.116943359375
 11
675.52728271484375
 21
-837.94073486328125
  0
LINE
  8
lay-5
 10
748.19580078125
 20
-908.30462646484375
 11
748.19580078125
 21
-816.50482177734375
  0
LINE
  8
lay-5
 10
675.52728271484375
 20
-827.2227783203125
 11
748.19580078125
 21
-827.2227783203125
  0
LINE
  8
lay-5
 10
715.52728271484375
 20
-832.48887822380834
 11
675.52728271484375
 21
-827.2227783203125
  0
LINE
  8
lay-5
 10
675.52728271484375
 20
-827.2227783203125
 11
715.52728271484375
 21
-821.95667841681666
  0
LINE
  8
lay-5
 10
715.52728271484375
 20
-821.95667841681666
 11
715.52728271484375
 21
-832.48887822380834
  0
LINE
  8
lay-5
 10
708.19580078125
 20
-821.95667841681666
 11
748.19580078125
 21
-827.2227783203125
  0
LINE
  8
lay-5
 10
748.19580078125
 20
-827.2227783203125
 11
708.19580078125
 21
-832.48887822380834
  0
LINE
  8
lay-5
 10
708.19580078125
 20
-832.48887822380834
 11
708.19580078125
 21
-821.95667841681666
  0
TEXT
  8
lay-5
 10
668.11151123046875
 20
-802.2227783203125
 40
50.0
  1
75
 41
1.05
  0
ENDBLK
  8
lay-0
  0
ENDSEC
  0
SECTION
  2
ENTITIES
  0
DIMENSION
  8
lay-5
  2
*idi199
 10
-301.80419921875
 20
-1370.515625
 11
-651.80419921875
 21
-1320.515625
 13
-1001.8042139604109
 23
-1248.2884684231999
 14
-301.80421396041106
 24
-1248.2884684232004
  0
LINE
  8
lay-5
 62
    6
 10
-301.804213960411
 20
-918.28846842320013
 11
-301.804213960411
 21
-924.28846842320013
  0
LINE
  8
lay-5
 62
    6
 10
-301.80421396041106
 20
-1242.2884684232004
 11
-301.80421396041106
 21
-1248.2884684232004
  0
DIMENSION
  8
lay-5
  2
*idi8
 10
747.69586181640625
 20
-1375.99658203125
 11
372.94583129882812
 21
-1325.99658203125
  1
750
 13
-1.8042139604108542
 23
-1258.2884684232004
 14
747.69585110563582
 24
-908.29250199319983
  0
POLYLINE
  8
lay-2
 62
    2
 40
0.0
 41
0.0
 66
    1
 70
    0
  0
VERTEX
  8
lay-2
 62
    2
 10
748.19578603958917
 20
-918.31229145979728
 70
    0
  0
VERTEX
  8
lay-2
 62
    2
 10
748.19578603958917
 20
-908.304601653541
 70
    0
  0
SEQEND
  8
lay-2
 62
    2
  0
DIMENSION
  8
lay-5
  2
*idi14
 10
975.7547607421875
 20
-1258.2884521484375
 11
925.7547607421875
 21
-1083.2965087890625
  1
120-1000
 13
748.19578603958917
 23
-908.304601653541
 14
647.19578603958917
 24
-1258.2884684232004
 50
90.0
  0
DIMENSION
  8
lay-5
  2
*idi204
 10
-951.80419921875
 20
-832.08416748046875
 11
-976.80419921875
 21
-782.08416748046875
 13
-1001.8042139604111
 23
-921.28846842320013
 14
-951.80421396041095
 24
-913.28846842320013
  0
TEXT
  8
lay-6
 10
-2215.4111328125
 20
-1158.50341796875
 40
75.0
  1
FIDECA Typ  7
 41
0.80000000000000004
  0
LINE
  8
lay-5
 62
    6
 10
68.195786039589137
 20
-939.28846842320036
 11
73.195786039589137
 21
-939.28846842320036
  0
LINE
  8
lay-2
 62
    2
 10
-956.80421396041095
 20
-1242.2884684231999
 11
-1001.8042139604109
 21
-1242.2884684231999
  0
LINE
  8
lay-2
 62
    2
 10
-1001.8042139604109
 20
-1242.2884684231999
 11
-1001.8042139604109
 21
-1248.2884684231999
  0
LINE
  8
lay-2
 62
    2
 10
-1001.8042139604109
 20
-1248.2884684231999
 11
-956.80421396041095
 21
-1248.2884684231999
  0
CIRCLE
  8
lay-2
 62
    2
 10
323.19578603958917
 20
-921.28846842320036
 40
3.0
  0
TEXT
  8
lay-6
 10
1562.2911376953125
 20
-1018.625732421875
 40
50.0
  1
L.S. 7 %%c 10 Lg. var.
 41
0.80000000000000004
  0
LINE
  8
lay-5
 10
-956.80421396041106
 20
-918.28846842320013
 11
-1001.8042139604111
 21
-918.28846842320013
  0
LINE
  8
lay-2
 62
    2
 10
-1001.8042139604111
 20
-918.28846842320013
 11
-1001.8042139604111
 21
-924.28846842320013
  0
LINE
  8
lay-2
 62
    2
 10
-1001.8042139604111
 20
-924.28846842320013
 11
-956.80421396041106
 21
-924.28846842320013
  0
CIRCLE
  8
lay-2
 62
    2
 10
123.19578603958919
 20
-921.28846842320036
 40
3.0
  0
CIRCLE
  8
lay-2
 62
    2
 10
523.19578603958917
 20
-921.28846842320036
 40
3.0
  0
LINE
  8
lay-2
 62
    2
 10
-301.80421396041106
 20
-1248.2884684232004
 11
-346.80421396041095
 21
-1248.2884684232004
  0
LINE
  8
lay-2
 62
    2
 10
-301.80421396041106
 20
-1242.2884684232004
 11
-346.80421396041095
 21
-1242.2884684232004
  0
LINE
  8
lay-2
 62
    2
 10
-301.804213960411
 20
-924.28846842320013
 11
-346.80421396041095
 21
-924.28846842320013
  0
LINE
  8
lay-2
 62
    2
 10
-301.804213960411
 20
-918.28846842320013
 11
-346.80421396041095
 21
-918.28846842320013
  0
CIRCLE
  8
lay-2
 62
    2
 10
723.19578603958917
 20
-921.28846842320036
 40
3.0
  0
ARC
  8
lay-2
 62
    2
 10
47.195786039589095
 20
-1227.2884684232004
 40
21.0
 50
270.0
 51
360.0
  0
ARC
  8
lay-2
 62
    2
 10
99.195786039589152
 20
-939.28846842320036
 40
21.0
 50
90.0
 51
180.0
  0
LINE
  8
lay-2
 62
    2
 10
99.195786039589152
 20
-918.28846842320036
 11
147.19578603958917
 21
-918.28846842320036
  0
ARC
  8
lay-2
 62
    2
 10
147.19578603958917
 20
-939.28846842320036
 40
21.0
 50
0.0
 51
90.0
  0
ARC
  8
lay-2
 62
    2
 10
199.19578603958911
 20
-1227.2884684232004
 40
21.0
 50
180.0
 51
270.0
  0
LINE
  8
lay-2
 62
    2
 10
68.195786039589137
 20
-939.28846842320036
 11
68.195786039589095
 21
-1227.2884684232004
  0
ARC
  8
lay-2
 62
    2
 10
99.195786039589137
 20
-939.28846842320036
 40
31.0
 50
90.0
 51
180.0
  0
LINE
  8
lay-2
 62
    2
 10
147.19578603958914
 20
-908.28846842320036
 11
99.195786039589137
 21
-908.28846842320036
  0
LINE
  8
lay-2
 62
    2
 10
178.19578603958911
 20
-1227.2884684232004
 11
178.19578603958914
 21
-939.28846842320036
  0
ARC
  8
lay-2
 62
    2
 10
147.19578603958914
 20
-939.28846842320036
 40
31.0
 50
0.0
 51
90.0
  0
LINE
  8
lay-2
 62
    2
 10
168.19578603958917
 20
-939.28846842320036
 11
168.19578603958911
 21
-1227.2884684232004
  0
ARC
  8
lay-2
 62
    2
 10
199.19578603958911
 20
-1227.2884684232004
 40
31.0
 50
180.0
 51
270.0
  0
LINE
  8
lay-2
 62
    2
 10
78.195786039589137
 20
-1227.2884684232004
 11
78.195786039589152
 21
-939.28846842320036
  0
ARC
  8
lay-2
 62
    2
 10
47.19578603958913
 20
-1227.2884684232004
 40
31.0
 50
270.0
 51
360.0
  0
LINE
  8
lay-2
 62
    2
 10
223.19578603958919
 20
-1248.2884684232004
 11
199.19578603958911
 21
-1248.2884684232004
  0
LINE
  8
lay-2
 62
    2
 10
199.19578603958911
 20
-1258.2884684232004
 11
223.19578603958919
 21
-1258.2884684232004
  0
LINE
  8
lay-2
 62
    2
 10
47.195786039589088
 20
-1248.2884684232004
 11
23.195786039589141
 21
-1248.2884684232004
  0
LINE
  8
lay-2
 62
    2
 10
23.195786039589127
 20
-1258.2884684232004
 11
47.19578603958913
 21
-1258.2884684232004
  0
ARC
  8
lay-2
 62
    2
 10
247.19578603958914
 20
-1227.2884684232004
 40
21.0
 50
270.0
 51
360.0
  0
ARC
  8
lay-2
 62
    2
 10
299.19578603958917
 20
-939.28846842320036
 40
21.0
 50
90.0
 51
180.0
  0
LINE
  8
lay-2
 62
    2
 10
299.19578603958917
 20
-918.28846842320036
 11
347.19578603958917
 21
-918.28846842320036
  0
ARC
  8
lay-2
 62
    2
 10
347.19578603958917
 20
-939.28846842320036
 40
21.0
 50
0.0
 51
90.0
  0
ARC
  8
lay-2
 62
    2
 10
399.19578603958905
 20
-1227.2884684232004
 40
21.0
 50
180.0
 51
270.0
  0
LINE
  8
lay-2
 62
    2
 10
268.19578603958917
 20
-939.28846842320036
 11
268.19578603958905
 21
-1227.2884684232004
  0
ARC
  8
lay-2
 62
    2
 10
299.19578603958917
 20
-939.28846842320036
 40
31.0
 50
90.0
 51
180.0
  0
LINE
  8
lay-2
 62
    2
 10
347.19578603958917
 20
-908.28846842320036
 11
299.19578603958917
 21
-908.28846842320036
  0
LINE
  8
lay-2
 62
    2
 10
378.19578603958905
 20
-1227.2884684232004
 11
378.19578603958917
 21
-939.28846842320036
  0
ARC
  8
lay-2
 62
    2
 10
347.19578603958917
 20
-939.28846842320036
 40
31.0
 50
0.0
 51
90.0
  0
LINE
  8
lay-2
 62
    2
 10
368.19578603958917
 20
-939.28846842320036
 11
368.19578603958905
 21
-1227.2884684232004
  0
ARC
  8
lay-2
 62
    2
 10
399.19578603958905
 20
-1227.2884684232004
 40
31.0
 50
180.0
 51
270.0
  0
LINE
  8
lay-2
 62
    2
 10
278.19578603958917
 20
-1227.2884684232004
 11
278.19578603958917
 21
-939.28846842320036
  0
ARC
  8
lay-2
 62
    2
 10
247.19578603958917
 20
-1227.2884684232004
 40
31.0
 50
270.0
 51
360.0
  0
LINE
  8
lay-2
 62
    2
 10
423.19578603958917
 20
-1248.2884684232004
 11
399.19578603958905
 21
-1248.2884684232004
  0
LINE
  8
lay-2
 62
    2
 10
399.19578603958905
 20
-1258.2884684232004
 11
423.19578603958917
 21
-1258.2884684232004
  0
LINE
  8
lay-2
 62
    2
 10
247.19578603958911
 20
-1248.2884684232004
 11
223.19578603958917
 21
-1248.2884684232004
  0
LINE
  8
lay-2
 62
    2
 10
223.19578603958917
 20
-1258.2884684232004
 11
247.19578603958917
 21
-1258.2884684232004
  0
ARC
  8
lay-2
 62
    2
 10
447.19578603958905
 20
-1227.2884684232004
 40
21.0
 50
270.0
 51
360.0
  0
ARC
  8
lay-2
 62
    2
 10
499.19578603958917
 20
-939.28846842320036
 40
21.0
 50
90.0
 51
180.0
  0
LINE
  8
lay-2
 62
    2
 10
499.19578603958917
 20
-918.28846842320036
 11
547.19578603958917
 21
-918.28846842320036
  0
ARC
  8
lay-2
 62
    2
 10
547.19578603958917
 20
-939.28846842320036
 40
21.0
 50
0.0
 51
90.0
  0
ARC
  8
lay-2
 62
    2
 10
599.19578603958905
 20
-1227.2884684232004
 40
21.0
 50
180.0
 51
270.0
  0
LINE
  8
lay-2
 62
    2
 10
468.19578603958917
 20
-939.28846842320036
 11
468.19578603958905
 21
-1227.2884684232004
  0
ARC
  8
lay-2
 62
    2
 10
499.19578603958917
 20
-939.28846842320036
 40
31.0
 50
90.0
 51
180.0
  0
LINE
  8
lay-2
 62
    2
 10
547.19578603958917
 20
-908.28846842320036
 11
499.19578603958917
 21
-908.28846842320036
  0
LINE
  8
lay-2
 62
    2
 10
578.19578603958905
 20
-1227.2884684232004
 11
578.19578603958917
 21
-939.28846842320036
  0
ARC
  8
lay-2
 62
    2
 10
547.19578603958917
 20
-939.28846842320036
 40
31.0
 50
0.0
 51
90.0
  0
LINE
  8
lay-2
 62
    2
 10
568.19578603958917
 20
-939.28846842320036
 11
568.19578603958905
 21
-1227.2884684232004
  0
ARC
  8
lay-2
 62
    2
 10
599.19578603958905
 20
-1227.2884684232004
 40
31.0
 50
180.0
 51
270.0
  0
LINE
  8
lay-2
 62
    2
 10
478.19578603958917
 20
-1227.2884684232004
 11
478.19578603958917
 21
-939.28846842320036
  0
ARC
  8
lay-2
 62
    2
 10
447.19578603958911
 20
-1227.2884684232004
 40
31.0
 50
270.0
 51
360.0
  0
LINE
  8
lay-2
 62
    2
 10
623.19578603958917
 20
-1248.2884684232004
 11
599.19578603958905
 21
-1248.2884684232004
  0
LINE
  8
lay-2
 62
    2
 10
599.19578603958905
 20
-1258.2884684232004
 11
623.19578603958917
 21
-1258.2884684232004
  0
LINE
  8
lay-2
 62
    2
 10
447.19578603958905
 20
-1248.2884684232004
 11
423.19578603958911
 21
-1248.2884684232004
  0
LINE
  8
lay-2
 62
    2
 10
423.19578603958911
 20
-1258.2884684232004
 11
447.19578603958911
 21
-1258.2884684232004
  0
ARC
  8
lay-2
 62
    2
 10
647.19578603958905
 20
-1227.2884684232004
 40
21.0
 50
270.0
 51
360.0
  0
ARC
  8
lay-2
 62
    2
 10
699.19578603958917
 20
-939.28846842320036
 40
21.0
 50
90.0
 51
180.0
  0
LINE
  8
lay-2
 62
    2
 10
699.19578603958917
 20
-918.28846842320036
 11
747.19578603958917
 21
-918.28846842320036
  0
ARC
  8
lay-2
 62
    2
 10
747.19578603958917
 20
-939.28846842320036
 40
21.0
 50
87.270597363221299
 51
90.0
  0
LINE
  8
lay-2
 62
    2
 10
668.19578603958917
 20
-939.28846842320036
 11
668.19578603958905
 21
-1227.2884684232004
  0
ARC
  8
lay-2
 62
    2
 10
699.19578603958917
 20
-939.28846842320036
 40
31.0
 50
90.0
 51
180.0
  0
LINE
  8
lay-2
 62
    2
 10
747.19578603958917
 20
-908.28846842320036
 11
699.19578603958917
 21
-908.28846842320036
  0
ARC
  8
lay-2
 62
    2
 10
747.19578603958917
 20
-939.28846842320036
 40
31.0
 50
88.15142835477144
 51
90.0
  0
LINE
  8
lay-2
 62
    2
 10
678.19578603958917
 20
-1227.2884684232004
 11
678.19578603958917
 21
-939.28846842320036
  0
ARC
  8
lay-2
 62
    2
 10
647.19578603958917
 20
-1227.2884684232004
 40
31.0
 50
270.0
 51
360.0
  0
LINE
  8
lay-2
 62
    2
 10
647.19578603958905
 20
-1248.2884684232004
 11
623.19578603958917
 21
-1248.2884684232004
  0
LINE
  8
lay-2
 62
    2
 10
623.19578603958905
 20
-1258.2884684232004
 11
647.19578603958917
 21
-1258.2884684232004
  0
LINE
  8
lay-2
 62
    2
 10
-346.80421396041095
 20
-1253.2884683995042
 11
-346.80421396041095
 21
-913.28846839950393
  0
LINE
  8
lay-2
 62
    2
 10
-356.80421396041095
 20
-913.28846834532715
 11
-356.80421396041095
 21
-1253.2884683453274
  0
LINE
  8
lay-2
 62
    2
 10
-356.80421396041095
 20
-1248.2884684232004
 11
-446.80421396041095
 21
-1248.2884684232004
  0
LINE
  8
lay-2
 62
    2
 10
-356.80421396041095
 20
-1242.2884684232004
 11
-446.80421396041095
 21
-1242.2884684232004
  0
ARC
  8
lay-2
 62
    2
 10
-351.80421396041095
 20
-1253.2884684232004
 40
5.0
 50
179.99999999999966
 51
360.0
  0
LINE
  8
lay-2
 62
    2
 10
-356.80421396041095
 20
-924.28846842320013
 11
-446.80421396041095
 21
-924.28846842320013
  0
LINE
  8
lay-2
 62
    2
 10
-356.80421396041095
 20
-918.28846842320013
 11
-446.80421396041095
 21
-918.28846842320013
  0
CIRCLE
  8
lay-2
 62
    2
 10
-351.80421396041095
 20
-913.28846842320013
 40
5.0
  0
LINE
  8
lay-2
 62
    2
 10
23.195786039589144
 20
-1258.2884684232004
 11
-1.8042139604108542
 21
-1258.2884684232004
  0
LINE
  8
lay-2
 62
    2
 10
-1.8042139604108542
 20
-1258.2884684232004
 11
-1.8042139604108536
 21
-1248.2884684232004
  0
LINE
  8
lay-2
 62
    2
 10
-1.8042139604108547
 20
-1248.2884684232004
 11
23.195786039589144
 21
-1248.2884684232004
  0
CIRCLE
  8
lay-2
 62
    2
 10
223.19578603958934
 20
-1245.2884684232004
 40
3.0
  0
CIRCLE
  8
lay-2
 62
    2
 10
23.195786039589329
 20
-1245.2884684232004
 40
3.0
  0
CIRCLE
  8
lay-2
 62
    2
 10
423.19578603958928
 20
-1245.2884684232004
 40
3.0
  0
CIRCLE
  8
lay-2
 62
    2
 10
623.19578603958928
 20
-1245.2884684232004
 40
3.0
  0
LINE
  8
lay-2
 62
    2
 10
-966.80421396041106
 20
-1242.2884684232004
 11
-956.80421396041106
 21
-1242.2884684232004
  0
LINE
  8
lay-2
 62
    2
 10
-956.80421396041106
 20
-1248.2884684232004
 11
-966.80421396041106
 21
-1248.2884684232004
  0
LINE
  8
lay-2
 62
    2
 10
-966.80421396041106
 20
-918.28846842320013
 11
-956.80421396041106
 21
-918.28846842320013
  0
LINE
  8
lay-2
 62
    2
 10
-446.80421396041095
 20
-1253.2884683995042
 11
-446.80421396041095
 21
-913.28846839950393
  0
LINE
  8
lay-2
 62
    2
 10
-456.80421396041095
 20
-913.28846834532715
 11
-456.80421396041095
 21
-1253.2884683453274
  0
LINE
  8
lay-2
 62
    2
 10
-456.80421396041095
 20
-1248.2884684232004
 11
-546.80421396041095
 21
-1248.2884684232004
  0
LINE
  8
lay-2
 62
    2
 10
-456.80421396041095
 20
-1242.2884684232004
 11
-546.80421396041095
 21
-1242.2884684232004
  0
ARC
  8
lay-2
 62
    2
 10
-451.80421396041095
 20
-1253.2884684232004
 40
5.0
 50
179.99999999999966
 51
360.0
  0
LINE
  8
lay-2
 62
    2
 10
-456.80421396041095
 20
-924.28846842320013
 11
-546.80421396041095
 21
-924.28846842320013
  0
LINE
  8
lay-2
 62
    2
 10
-456.80421396041095
 20
-918.28846842320013
 11
-546.80421396041095
 21
-918.28846842320013
  0
CIRCLE
  8
lay-2
 62
    2
 10
-451.80421396041095
 20
-913.28846842320013
 40
5.0
  0
LINE
  8
lay-2
 62
    2
 10
-546.80421396041095
 20
-1253.2884683995042
 11
-546.80421396041095
 21
-913.28846839950393
  0
LINE
  8
lay-2
 62
    2
 10
-556.80421396041095
 20
-913.28846834532715
 11
-556.80421396041095
 21
-1253.2884683453274
  0
LINE
  8
lay-2
 62
    2
 10
-556.80421396041095
 20
-1248.2884684232004
 11
-646.80421396041095
 21
-1248.2884684232004
  0
LINE
  8
lay-2
 62
    2
 10
-556.80421396041095
 20
-1242.2884684232004
 11
-646.80421396041095
 21
-1242.2884684232004
  0
ARC
  8
lay-2
 62
    2
 10
-551.80421396041095
 20
-1253.2884684232004
 40
5.0
 50
179.99999999999966
 51
360.0
  0
LINE
  8
lay-2
 62
    2
 10
-556.80421396041095
 20
-924.28846842320013
 11
-646.80421396041095
 21
-924.28846842320013
  0
LINE
  8
lay-2
 62
    2
 10
-556.80421396041095
 20
-918.28846842320013
 11
-646.80421396041095
 21
-918.28846842320013
  0
CIRCLE
  8
lay-2
 62
    2
 10
-551.80421396041095
 20
-913.28846842320013
 40
5.0
  0
LINE
  8
lay-2
 62
    2
 10
-646.80421396041095
 20
-1253.2884683995042
 11
-646.80421396041095
 21
-913.28846839950393
  0
LINE
  8
lay-2
 62
    2
 10
-656.80421396041095
 20
-913.28846834532715
 11
-656.80421396041095
 21
-1253.2884683453274
  0
LINE
  8
lay-2
 62
    2
 10
-656.80421396041095
 20
-1248.2884684232004
 11
-746.80421396041095
 21
-1248.2884684232004
  0
LINE
  8
lay-2
 62
    2
 10
-656.80421396041095
 20
-1242.2884684232004
 11
-746.80421396041095
 21
-1242.2884684232004
  0
ARC
  8
lay-2
 62
    2
 10
-651.80421396041095
 20
-1253.2884684232004
 40
5.0
 50
179.99999999999966
 51
360.0
  0
LINE
  8
lay-2
 62
    2
 10
-656.80421396041095
 20
-924.28846842320013
 11
-746.80421396041095
 21
-924.28846842320013
  0
LINE
  8
lay-2
 62
    2
 10
-656.80421396041095
 20
-918.28846842320013
 11
-746.80421396041095
 21
-918.28846842320013
  0
CIRCLE
  8
lay-2
 62
    2
 10
-651.80421396041095
 20
-913.28846842320013
 40
5.0
  0
LINE
  8
lay-2
 62
    2
 10
-746.80421396041095
 20
-1253.2884683995042
 11
-746.80421396041095
 21
-913.28846839950393
  0
LINE
  8
lay-2
 62
    2
 10
-756.80421396041095
 20
-913.28846834532715
 11
-756.80421396041095
 21
-1253.2884683453274
  0
LINE
  8
lay-2
 62
    2
 10
-756.80421396041095
 20
-1248.2884684232004
 11
-846.80421396041095
 21
-1248.2884684232004
  0
LINE
  8
lay-2
 62
    2
 10
-756.80421396041095
 20
-1242.2884684232004
 11
-846.80421396041095
 21
-1242.2884684232004
  0
ARC
  8
lay-2
 62
    2
 10
-751.80421396041095
 20
-1253.2884684232004
 40
5.0
 50
179.99999999999966
 51
360.0
  0
LINE
  8
lay-2
 62
    2
 10
-756.80421396041095
 20
-924.28846842320013
 11
-846.80421396041095
 21
-924.28846842320013
  0
LINE
  8
lay-2
 62
    2
 10
-756.80421396041095
 20
-918.28846842320013
 11
-846.80421396041095
 21
-918.28846842320013
  0
CIRCLE
  8
lay-2
 62
    2
 10
-751.80421396041095
 20
-913.28846842320013
 40
5.0
  0
LINE
  8
lay-2
 62
    2
 10
-846.80421396041095
 20
-1253.2884683995042
 11
-846.80421396041095
 21
-913.28846839950393
  0
LINE
  8
lay-2
 62
    2
 10
-856.80421396041095
 20
-913.28846834532715
 11
-856.80421396041095
 21
-1253.2884683453274
  0
LINE
  8
lay-2
 62
    2
 10
-856.80421396041095
 20
-1248.2884684232004
 11
-946.80421396041095
 21
-1248.2884684232004
  0
LINE
  8
lay-2
 62
    2
 10
-856.80421396041095
 20
-1242.2884684232004
 11
-946.80421396041095
 21
-1242.2884684232004
  0
ARC
  8
lay-2
 62
    2
 10
-851.80421396041095
 20
-1253.2884684232004
 40
5.0
 50
179.99999999999966
 51
360.0
  0
LINE
  8
lay-2
 62
    2
 10
-856.80421396041095
 20
-924.28846842320013
 11
-946.80421396041095
 21
-924.28846842320013
  0
LINE
  8
lay-2
 62
    2
 10
-856.80421396041095
 20
-918.28846842320013
 11
-946.80421396041095
 21
-918.28846842320013
  0
CIRCLE
  8
lay-2
 62
    2
 10
-851.80421396041095
 20
-913.28846842320013
 40
5.0
  0
LINE
  8
lay-2
 62
    2
 10
-946.80421396041095
 20
-1253.2884683995042
 11
-946.80421396041095
 21
-913.28846839950393
  0
LINE
  8
lay-2
 62
    2
 10
-956.80421396041095
 20
-913.28846834532715
 11
-956.80421396041095
 21
-1253.2884683453274
  0
ARC
  8
lay-2
 62
    2
 10
-951.80421396041095
 20
-1253.2884684232004
 40
5.0
 50
179.99999999999966
 51
360.0
  0
CIRCLE
  8
lay-2
 62
    2
 10
-951.80421396041095
 20
-913.28846842320013
 40
5.0
  0
TEXT
  8
lay-6
 10
1557.082275390625
 20
-1160.005126953125
 40
50.0
  1
Q.S. 8 %%c 6 Lg. 700mm
 41
0.80000000000000004
  0
DIMENSION
  8
lay-5
  2
*idi173
 10
-350.508544921875
 20
-830.7767333984375
 11
-651.1563720703125
 21
-780.7767333984375
  1
600
 13
-951.80419921875
 23
-913.2884521484375
 14
-350.50854745789252
 24
-854.94202622727789
  0
DIMENSION
  8
lay-5
  2
*idi178
 10
-301.80419921875
 20
-830.7767333984375
 11
-326.1563720703125
 21
-780.7767333984375
  1
50
 13
-350.50854745789252
 23
-854.94202622727789
 14
-301.804213960411
 24
-918.28846842320013
  0
LINE
  8
lay-2
 10
668.19578603958917
 20
-939.28846842320036
 11
673.19578603958917
 21
-939.28846842320036
  0
DIMENSION
  8
lay-5
  2
*idi184
 10
73.195785522460938
 20
-827.2227783203125
 11
35.695785999298096
 21
-777.2227783203125
  1
75
 13
-1.8042140007019041
 23
-1375.99658203125
 14
73.195786039589137
 24
-939.28846842320036
  0
DIMENSION
  8
lay-5
  2
*idi189
 10
675.52728271484375
 20
-827.2227783203125
 11
374.36154174804687
 21
-777.2227783203125
  1
600
 13
73.195786039589137
 23
-939.28846842320036
 14
675.52728755947169
 24
-807.11693918755236
  0
DIMENSION
  8
lay-5
  2
*idi194
 10
748.19580078125
 20
-827.2227783203125
 11
711.86151123046875
 21
-777.2227783203125
  1
75
 13
675.52728755947169
 23
-807.11693918755236
 14
748.19578603958917
 24
-908.304601653541
  0
ENDSEC
  0
EOF
