  0
SECTION
  2
HEADER
  9
$EXTMIN
 10
-2347.664561582129
 20
-1914.4805908203125
  9
$EXTMAX
 10
2383.998545957129
 20
1040.9586181640625
  9
$DIMASZ
 40
40.0
  9
$DIMTXT
 40
50.0
  0
ENDSEC
  0
SECTION
  2
TABLES
  0
TABLE
  2
LTYPE
 70
  126
  0
LTYPE
  2
CONTINUOUS
 70
   64
  3
Solid line
 72
   65
 73
    0
 40
0.0
  0
LTYPE
  2
HIDDEN
 70
   64
  3
_ _ _ _ _ _ _ _ _ _ _ _ _ _ _ _ _ _ _ _ _ _ _
 72
   65
 73
    2
 40
0.375
 49
0.25
 49
-0.125
  0
LTYPE
  2
CENTER
 70
   64
  3
____ _ ____ _ ____ _ ____ _ ____ _ ____ _ ____
 72
   65
 73
    4
 40
2.0
 49
1.25
 49
-0.25
 49
0.25
 49
-0.25
  0
LTYPE
  2
DASHED
 70
   64
  3
__ __ __ __ __ __ __ __ __ __ __ __ __ __ __
 72
   65
 73
    2
 40
1.5
 49
1.25
 49
-0.25
  0
LTYPE
  2
LT-7
 70
   64
  3
METlt
 72
   65
 73
    6
 40
7.9199998453259468
 49
3.5999999195337296
 49
-1.1999999731779099
 49
0.36000000312924385
 49
-1.1999999731779099
 49
0.36000000312924385
 49
-1.1999999731779099
  0
LTYPE
  2
LT-8
 70
   64
  3
METlt
 72
   65
 73
    4
 40
6.3599998690187931
 49
3.5999999195337296
 49
-1.1999999731779099
 49
0.36000000312924385
 49
-1.1999999731779099
  0
LTYPE
  2
LT-9
 70
   64
  3
METlt
 72
   65
 73
    4
 40
6.3599998690187931
 49
3.5999999195337296
 49
-1.1999999731779099
 49
0.36000000312924385
 49
-1.1999999731779099
  0
LTYPE
  2
LT-10
 70
   64
  3
METlt
 72
   65
 73
    2
 40
5.9999998658895493
 49
3.5999999195337296
 49
-2.3999999463558197
  0
LTYPE
  2
LT-11
 70
   64
  3
METlt
 72
   65
 73
    6
 40
11.159999761730433
 49
3.5999999195337296
 49
-1.1999999731779099
 49
3.5999999195337296
 49
-1.1999999731779099
 49
0.36000000312924385
 49
-1.1999999731779099
  0
LTYPE
  2
LT-12
 70
   64
  3
METlt
 72
   65
 73
    4
 40
3.2399999443441629
 49
1.7999999597668648
 49
-0.59999998658895493
 49
0.24000001139938831
 49
-0.59999998658895493
  0
ENDTAB
  0
TABLE
  2
LAYER
 70
    4
  0
LAYER
  2
lay-0
 70
    0
 62
    7
  6
CONTINUOUS
  0
LAYER
  2
lay-2
 70
    0
 62
    7
  6
CONTINUOUS
  0
LAYER
  2
lay-5
 70
    0
 62
    7
  6
CONTINUOUS
  0
LAYER
  2
lay-6
 70
    0
 62
    7
  6
CONTINUOUS
  0
ENDTAB
  0
TABLE
  2
STYLE
 70
  256
  0
STYLE
  2
STANDARD
 70
   64
 40
0.0
 41
1.0
 50
0.0
 71
    0
 42
20.0
  3
TXT
  4

  0
ENDTAB
  0
ENDSEC
  0
SECTION
  2
BLOCKS
  0
BLOCK
  8
lay-0
  2
*idi199
 70
    1
 10
0.0
 20
0.0
  0
LINE
  8
lay-5
 10
-1.8042140007019043
 20
-658.2884521484375
 11
-1.8042140007019043
 21
-773.24102783203125
  0
LINE
  8
lay-5
 10
648.19580078125
 20
-658.2884521484375
 11
648.19580078125
 21
-773.24102783203125
  0
LINE
  8
lay-5
 10
-1.8042140007019043
 20
-762.5230712890625
 11
648.19580078125
 21
-762.5230712890625
  0
LINE
  8
lay-5
 10
38.195785999298096
 20
-767.78917119255834
 11
-1.8042140007019043
 21
-762.5230712890625
  0
LINE
  8
lay-5
 10
-1.8042140007019043
 20
-762.5230712890625
 11
38.195785999298096
 21
-757.25697138556666
  0
LINE
  8
lay-5
 10
38.195785999298096
 20
-757.25697138556666
 11
38.195785999298096
 21
-767.78917119255834
  0
LINE
  8
lay-5
 10
608.19580078125
 20
-757.25697138556666
 11
648.19580078125
 21
-762.5230712890625
  0
LINE
  8
lay-5
 10
648.19580078125
 20
-762.5230712890625
 11
608.19580078125
 21
-767.78917119255834
  0
LINE
  8
lay-5
 10
608.19580078125
 20
-767.78917119255834
 11
608.19580078125
 21
-757.25697138556666
  0
TEXT
  8
lay-5
 10
253.19578552246094
 20
-737.5230712890625
 40
50.0
  1
650
 41
1.05
  0
ENDBLK
  8
lay-0
  0
BLOCK
  8
lay-0
  2
*idi184
 70
    1
 10
0.0
 20
0.0
  0
LINE
  8
lay-5
 10
547.19580078125
 20
-308.28848266601562
 11
1408.4237060546875
 21
-308.28848266601562
  0
LINE
  8
lay-5
 10
648.19580078125
 20
-658.2884521484375
 11
1408.4237060546875
 21
-658.2884521484375
  0
LINE
  8
lay-5
 10
1397.7056884765625
 20
-308.28848266601562
 11
1397.7056884765625
 21
-658.2884521484375
  0
LINE
  8
lay-5
 10
1392.4395885730667
 20
-348.28848266601562
 11
1397.7056884765625
 21
-308.28848266601562
  0
LINE
  8
lay-5
 10
1397.7056884765625
 20
-308.28848266601562
 11
1402.9717883800583
 21
-348.28848266601562
  0
LINE
  8
lay-5
 10
1402.9717883800583
 20
-348.28848266601562
 11
1392.4395885730667
 21
-348.28848266601562
  0
LINE
  8
lay-5
 10
1402.9717883800583
 20
-618.2884521484375
 11
1397.7056884765625
 21
-658.2884521484375
  0
LINE
  8
lay-5
 10
1397.7056884765625
 20
-658.2884521484375
 11
1392.4395885730667
 21
-618.2884521484375
  0
LINE
  8
lay-5
 10
1392.4395885730667
 20
-618.2884521484375
 11
1402.9717883800583
 21
-618.2884521484375
  0
TEXT
  8
lay-5
 10
1506.084716796875
 20
-667.383544921875
 40
50.0
  1
120-1000
 50
90.0
 41
1.05
  0
ENDBLK
  8
lay-0
  0
BLOCK
  8
lay-0
  2
*idi204
 70
    1
 10
0.0
 20
0.0
  0
LINE
  8
lay-5
 10
-801.80419921875
 20
-648.2884521484375
 11
-801.80419921875
 21
-773.19769287109375
  0
LINE
  8
lay-5
 10
-201.80421447753906
 20
-648.2884521484375
 11
-201.80421447753906
 21
-773.19769287109375
  0
LINE
  8
lay-5
 10
-801.80419921875
 20
-762.479736328125
 11
-201.80421447753906
 21
-762.479736328125
  0
LINE
  8
lay-5
 10
-761.80419921875
 20
-767.74583623162084
 11
-801.80419921875
 21
-762.479736328125
  0
LINE
  8
lay-5
 10
-801.80419921875
 20
-762.479736328125
 11
-761.80419921875
 21
-757.21363642462916
  0
LINE
  8
lay-5
 10
-761.80419921875
 20
-757.21363642462916
 11
-761.80419921875
 21
-767.74583623162084
  0
LINE
  8
lay-5
 10
-241.80421447753906
 20
-757.21363642462916
 11
-201.80421447753906
 21
-762.479736328125
  0
LINE
  8
lay-5
 10
-201.80421447753906
 20
-762.479736328125
 11
-241.80421447753906
 21
-767.74583623162084
  0
LINE
  8
lay-5
 10
-241.80421447753906
 20
-767.74583623162084
 11
-241.80421447753906
 21
-757.21363642462916
  0
TEXT
  8
lay-5
 10
-571.80419921875
 20
-737.479736328125
 40
50.0
  1
600
 41
1.05
  0
ENDBLK
  8
lay-0
  0
BLOCK
  8
lay-0
  2
*idi209
 70
    1
 10
0.0
 20
0.0
  0
LINE
  8
lay-5
 10
-201.80421447753906
 20
-642.2884521484375
 11
-201.80421447753906
 21
-168.83322143554687
  0
LINE
  8
lay-5
 10
-251.80421447753906
 20
-313.28848266601562
 11
-251.80421447753906
 21
-168.83322143554687
  0
LINE
  8
lay-5
 10
-201.80421447753906
 20
-179.55119323730469
 11
-251.80421447753906
 21
-179.55119323730469
  0
LINE
  8
lay-5
 10
-241.80421447753906
 20
-174.28509333380885
 11
-201.80421447753906
 21
-179.55119323730469
  0
LINE
  8
lay-5
 10
-201.80421447753906
 20
-179.55119323730469
 11
-241.80421447753906
 21
-184.8172931408005
  0
LINE
  8
lay-5
 10
-241.80421447753906
 20
-184.8172931408005
 11
-241.80421447753906
 21
-174.28509333380885
  0
LINE
  8
lay-5
 10
-211.80421447753906
 20
-184.81729314080053
 11
-251.80421447753906
 21
-179.55119323730469
  0
LINE
  8
lay-5
 10
-251.80421447753906
 20
-179.55119323730469
 11
-211.80421447753906
 21
-174.28509333380887
  0
LINE
  8
lay-5
 10
-211.80421447753906
 20
-174.28509333380887
 11
-211.80421447753906
 21
-184.81729314080053
  0
TEXT
  8
lay-5
 10
-270.55419921875
 20
-154.55119323730469
 40
50.0
  1
50
 41
1.05
  0
ENDBLK
  8
lay-0
  0
BLOCK
  8
lay-0
  2
*idi229
 70
    1
 10
0.0
 20
0.0
  0
LINE
  8
lay-5
 10
-251.80421447753906
 20
-313.28848266601562
 11
-251.80421447753906
 21
-168.83322143554687
  0
LINE
  8
lay-5
 10
-751.80419921875
 20
-313.28848266601562
 11
-751.80419921875
 21
-168.83322143554687
  0
LINE
  8
lay-5
 10
-251.80421447753906
 20
-179.55119323730469
 11
-751.80419921875
 21
-179.55119323730469
  0
LINE
  8
lay-5
 10
-291.80421447753906
 20
-174.28509333380885
 11
-251.80421447753906
 21
-179.55119323730469
  0
LINE
  8
lay-5
 10
-251.80421447753906
 20
-179.55119323730469
 11
-291.80421447753906
 21
-184.8172931408005
  0
LINE
  8
lay-5
 10
-291.80421447753906
 20
-184.8172931408005
 11
-291.80421447753906
 21
-174.28509333380885
  0
LINE
  8
lay-5
 10
-711.80419921875
 20
-184.81729314080053
 11
-751.80419921875
 21
-179.55119323730469
  0
LINE
  8
lay-5
 10
-751.80419921875
 20
-179.55119323730469
 11
-711.80419921875
 21
-174.28509333380887
  0
LINE
  8
lay-5
 10
-711.80419921875
 20
-174.28509333380887
 11
-711.80419921875
 21
-184.81729314080053
  0
TEXT
  8
lay-5
 10
-571.80419921875
 20
-154.55119323730469
 40
50.0
  1
500
 41
1.05
  0
ENDBLK
  8
lay-0
  0
BLOCK
  8
lay-0
  2
*idi189
 70
    1
 10
0.0
 20
0.0
  0
LINE
  8
lay-5
 10
-751.80419921875
 20
-313.28848266601562
 11
-751.80419921875
 21
-168.83322143554687
  0
LINE
  8
lay-5
 10
-801.80419921875
 20
-642.2884521484375
 11
-801.80419921875
 21
-168.83322143554687
  0
LINE
  8
lay-5
 10
-751.80419921875
 20
-179.55119323730469
 11
-801.80419921875
 21
-179.55119323730469
  0
LINE
  8
lay-5
 10
-791.80419921875
 20
-174.28509333380885
 11
-751.80419921875
 21
-179.55119323730469
  0
LINE
  8
lay-5
 10
-751.80419921875
 20
-179.55119323730469
 11
-791.80419921875
 21
-184.8172931408005
  0
LINE
  8
lay-5
 10
-791.80419921875
 20
-184.8172931408005
 11
-791.80419921875
 21
-174.28509333380885
  0
LINE
  8
lay-5
 10
-761.80419921875
 20
-184.81729314080053
 11
-801.80419921875
 21
-179.55119323730469
  0
LINE
  8
lay-5
 10
-801.80419921875
 20
-179.55119323730469
 11
-761.80419921875
 21
-174.28509333380887
  0
LINE
  8
lay-5
 10
-761.80419921875
 20
-174.28509333380887
 11
-761.80419921875
 21
-184.81729314080053
  0
TEXT
  8
lay-5
 10
-820.55419921875
 20
-154.55119323730469
 40
50.0
  1
50
 41
1.05
  0
ENDBLK
  8
lay-0
  0
BLOCK
  8
lay-0
  2
*idi214
 70
    1
 10
0.0
 20
0.0
  0
LINE
  8
lay-5
 10
-1.8042140007019043
 20
-648.2884521484375
 11
-1.8042140007019043
 21
-164.56294250488281
  0
LINE
  8
lay-5
 10
73.195785522460938
 20
-339.28848266601562
 11
73.195785522460938
 21
-164.56294250488281
  0
LINE
  8
lay-5
 10
-1.8042140007019043
 20
-175.28091430664062
 11
73.195785522460938
 21
-175.28091430664062
  0
LINE
  8
lay-5
 10
38.195785999298096
 20
-180.54701421013647
 11
-1.8042140007019043
 21
-175.28091430664062
  0
LINE
  8
lay-5
 10
-1.8042140007019043
 20
-175.28091430664062
 11
38.195785999298096
 21
-170.01481440314481
  0
LINE
  8
lay-5
 10
38.195785999298096
 20
-170.01481440314481
 11
38.195785999298096
 21
-180.54701421013647
  0
LINE
  8
lay-5
 10
33.195785522460937
 20
-170.01481440314478
 11
73.195785522460938
 21
-175.28091430664062
  0
LINE
  8
lay-5
 10
73.195785522460938
 20
-175.28091430664062
 11
33.195785522460937
 21
-180.54701421013644
  0
LINE
  8
lay-5
 10
33.195785522460937
 20
-180.54701421013644
 11
33.195785522460937
 21
-170.01481440314478
  0
TEXT
  8
lay-5
 10
-8.0542135238647461
 20
-150.28091430664062
 40
50.0
  1
75
 41
1.05
  0
ENDBLK
  8
lay-0
  0
BLOCK
  8
lay-0
  2
*idi219
 70
    1
 10
0.0
 20
0.0
  0
LINE
  8
lay-5
 10
73.195785522460938
 20
-339.28848266601562
 11
73.195785522460938
 21
-164.56294250488281
  0
LINE
  8
lay-5
 10
573.19580078125
 20
-339.28848266601562
 11
573.19580078125
 21
-164.56294250488281
  0
LINE
  8
lay-5
 10
73.195785522460938
 20
-175.28091430664062
 11
573.19580078125
 21
-175.28091430664062
  0
LINE
  8
lay-5
 10
113.19578552246094
 20
-180.54701421013647
 11
73.195785522460938
 21
-175.28091430664062
  0
LINE
  8
lay-5
 10
73.195785522460938
 20
-175.28091430664062
 11
113.19578552246094
 21
-170.01481440314481
  0
LINE
  8
lay-5
 10
113.19578552246094
 20
-170.01481440314481
 11
113.19578552246094
 21
-180.54701421013647
  0
LINE
  8
lay-5
 10
533.19580078125
 20
-170.01481440314478
 11
573.19580078125
 21
-175.28091430664062
  0
LINE
  8
lay-5
 10
573.19580078125
 20
-175.28091430664062
 11
533.19580078125
 21
-180.54701421013644
  0
LINE
  8
lay-5
 10
533.19580078125
 20
-180.54701421013644
 11
533.19580078125
 21
-170.01481440314478
  0
TEXT
  8
lay-5
 10
253.19578552246094
 20
-150.28091430664062
 40
50.0
  1
500
 41
1.05
  0
ENDBLK
  8
lay-0
  0
BLOCK
  8
lay-0
  2
*idi224
 70
    1
 10
0.0
 20
0.0
  0
LINE
  8
lay-5
 10
573.19580078125
 20
-339.28848266601562
 11
573.19580078125
 21
-164.56294250488281
  0
LINE
  8
lay-5
 10
648.19580078125
 20
-648.2884521484375
 11
648.19580078125
 21
-164.56294250488281
  0
LINE
  8
lay-5
 10
573.19580078125
 20
-175.28091430664062
 11
648.19580078125
 21
-175.28091430664062
  0
LINE
  8
lay-5
 10
613.19580078125
 20
-180.54701421013647
 11
573.19580078125
 21
-175.28091430664062
  0
LINE
  8
lay-5
 10
573.19580078125
 20
-175.28091430664062
 11
613.19580078125
 21
-170.01481440314481
  0
LINE
  8
lay-5
 10
613.19580078125
 20
-170.01481440314481
 11
613.19580078125
 21
-180.54701421013647
  0
LINE
  8
lay-5
 10
608.19580078125
 20
-170.01481440314478
 11
648.19580078125
 21
-175.28091430664062
  0
LINE
  8
lay-5
 10
648.19580078125
 20
-175.28091430664062
 11
608.19580078125
 21
-180.54701421013644
  0
LINE
  8
lay-5
 10
608.19580078125
 20
-180.54701421013644
 11
608.19580078125
 21
-170.01481440314478
  0
TEXT
  8
lay-5
 10
566.94580078125
 20
-150.28091430664062
 40
50.0
  1
75
 41
1.05
  0
ENDBLK
  8
lay-0
  0
ENDSEC
  0
SECTION
  2
ENTITIES
  0
DIMENSION
  8
lay-5
  2
*idi199
 10
648.19580078125
 20
-762.5230712890625
 11
323.19579315185547
 21
-712.5230712890625
 13
-1.8042139604107623
 23
-658.28846842320036
 14
648.19578603958951
 24
-658.28846842320024
  0
LINE
  8
lay-2
 62
    2
 10
-801.80421396041083
 20
-318.28846842320007
 11
-801.80421396041083
 21
-324.28846842320007
  0
LINE
  8
lay-2
 62
    2
 10
-756.80421396041083
 20
-642.28846842320036
 11
-801.80421396041083
 21
-642.28846842320036
  0
TEXT
  8
lay-6
 10
-2222.755859375
 20
-556.23822021484375
 40
75.0
  1
FIDECA Typ  6
 41
0.80000000000000004
  0
DIMENSION
  8
lay-5
  2
*idi184
 10
1397.7056884765625
 20
-658.2884521484375
 11
1481.084716796875
 21
-483.633544921875
  1
120-1000
 13
547.19578603958928
 23
-308.28846842320036
 14
648.19578603958951
 24
-658.28846842320024
 50
90.0
  0
CIRCLE
  8
lay-2
 62
    2
 10
23.195786039589329
 20
-645.28846842320036
 40
3.0
  0
LINE
  8
lay-5
 62
    6
 10
68.195786039589251
 20
-339.28846842320041
 11
73.195786039589251
 21
-339.28846842320041
  0
CIRCLE
  8
lay-2
 62
    2
 10
123.19578603958929
 20
-321.28846842320041
 40
3.0
  0
LINE
  8
lay-2
 62
    2
 10
-801.80421396041083
 20
-642.28846842320036
 11
-801.80421396041083
 21
-648.28846842320036
  0
CIRCLE
  8
lay-2
 62
    2
 10
323.19578603958928
 20
-321.28846842320041
 40
3.0
  0
LINE
  8
lay-2
 62
    2
 10
-801.80421396041083
 20
-648.28846842320036
 11
-756.80421396041083
 21
-648.28846842320036
  0
CIRCLE
  8
lay-2
 62
    2
 10
523.19578603958928
 20
-321.28846842320041
 40
3.0
  0
LINE
  8
lay-5
 62
    6
 10
578.19578603958928
 20
-339.28846842320041
 11
573.19578603958928
 21
-339.28846842320041
  0
LINE
  8
lay-2
 62
    2
 10
-246.80421396041081
 20
-642.28846842320036
 11
-201.80421396041081
 21
-642.28846842320036
  0
LINE
  8
lay-2
 62
    2
 10
-201.80421396041081
 20
-642.28846842320036
 11
-201.80421396041081
 21
-648.28846842320036
  0
LINE
  8
lay-2
 62
    2
 10
-201.80421396041081
 20
-648.28846842320036
 11
-246.80421396041081
 21
-648.28846842320036
  0
ARC
  8
lay-2
 62
    2
 10
47.195786039589208
 20
-627.28846842320036
 40
21.0
 50
270.0
 51
360.0
  0
ARC
  8
lay-2
 62
    2
 10
99.195786039589265
 20
-339.28846842320036
 40
21.0
 50
90.0
 51
180.0
  0
LINE
  8
lay-2
 62
    2
 10
99.195786039589265
 20
-318.28846842320036
 11
147.19578603958928
 21
-318.28846842320036
  0
ARC
  8
lay-2
 62
    2
 10
147.19578603958928
 20
-339.28846842320036
 40
21.0
 50
0.0
 51
90.0
  0
ARC
  8
lay-2
 62
    2
 10
199.19578603958922
 20
-627.28846842320036
 40
21.0
 50
180.0
 51
270.0
  0
LINE
  8
lay-2
 62
    2
 10
68.195786039589251
 20
-339.28846842320036
 11
68.195786039589208
 21
-627.28846842320036
  0
ARC
  8
lay-2
 62
    2
 10
99.195786039589251
 20
-339.28846842320036
 40
31.0
 50
90.0
 51
180.0
  0
LINE
  8
lay-2
 62
    2
 10
147.19578603958925
 20
-308.28846842320036
 11
99.195786039589251
 21
-308.28846842320036
  0
LINE
  8
lay-2
 62
    2
 10
178.19578603958922
 20
-627.28846842320036
 11
178.19578603958925
 21
-339.28846842320036
  0
ARC
  8
lay-2
 62
    2
 10
147.19578603958925
 20
-339.28846842320036
 40
31.0
 50
0.0
 51
90.0
  0
LINE
  8
lay-2
 62
    2
 10
168.19578603958928
 20
-339.28846842320036
 11
168.19578603958922
 21
-627.28846842320036
  0
ARC
  8
lay-2
 62
    2
 10
199.19578603958922
 20
-627.28846842320036
 40
31.0
 50
180.0
 51
270.0
  0
LINE
  8
lay-2
 62
    2
 10
78.195786039589251
 20
-627.28846842320036
 11
78.195786039589265
 21
-339.28846842320036
  0
ARC
  8
lay-2
 62
    2
 10
47.195786039589244
 20
-627.28846842320036
 40
31.0
 50
270.0
 51
360.0
  0
LINE
  8
lay-2
 62
    2
 10
247.19578603958917
 20
-648.28846842320036
 11
199.19578603958922
 21
-648.28846842320036
  0
LINE
  8
lay-2
 62
    2
 10
199.19578603958922
 20
-658.28846842320036
 11
247.19578603958928
 21
-658.28846842320036
  0
LINE
  8
lay-2
 62
    2
 10
47.195786039589201
 20
-648.28846842320036
 11
23.195786039589255
 21
-648.28846842320036
  0
LINE
  8
lay-2
 62
    2
 10
23.19578603958924
 20
-658.28846842320036
 11
47.195786039589244
 21
-658.28846842320036
  0
DIMENSION
  8
lay-5
  2
*idi204
 10
-201.80421447753906
 20
-762.479736328125
 11
-501.80419921875
 21
-712.479736328125
 13
-801.80421396041083
 23
-648.28846842320036
 14
-201.80421396041081
 24
-648.28846842320036
  0
LINE
  8
lay-2
 62
    2
 10
-756.80421396041083
 20
-318.28846842320007
 11
-801.80421396041083
 21
-318.28846842320007
  0
LINE
  8
lay-2
 62
    2
 10
-801.80421396041083
 20
-324.28846842320007
 11
-756.80421396041083
 21
-324.28846842320007
  0
ARC
  8
lay-2
 62
    2
 10
547.19578603958928
 20
-339.28846842320036
 40
21.0
 50
0.0
 51
90.0
  0
ARC
  8
lay-2
 62
    2
 10
599.19578603958917
 20
-627.28846842320036
 40
21.0
 50
180.0
 51
270.0
  0
LINE
  8
lay-2
 62
    2
 10
578.19578603958917
 20
-627.28846842320036
 11
578.19578603958928
 21
-339.28846842320036
  0
ARC
  8
lay-2
 62
    2
 10
547.19578603958928
 20
-339.28846842320036
 40
31.0
 50
0.0
 51
90.0
  0
LINE
  8
lay-2
 62
    2
 10
568.19578603958928
 20
-339.28846842320036
 11
568.19578603958917
 21
-627.28846842320036
  0
ARC
  8
lay-2
 62
    2
 10
599.19578603958917
 20
-627.28846842320036
 40
31.0
 50
180.0
 51
270.0
  0
LINE
  8
lay-2
 62
    2
 10
623.19578603958928
 20
-648.28846842320036
 11
599.19578603958917
 21
-648.28846842320036
  0
LINE
  8
lay-2
 62
    2
 10
599.19578603958917
 20
-658.28846842320036
 11
623.19578603958928
 21
-658.28846842320036
  0
DIMENSION
  8
lay-5
  2
*idi209
 10
-251.80421447753906
 20
-179.55119323730469
 11
-226.80420684814453
 21
-129.55119323730469
 13
-201.80421396041081
 23
-642.28846842320036
 14
-251.80421396041081
 24
-313.28846842320013
  0
DIMENSION
  8
lay-5
  2
*idi229
 10
-751.80419921875
 20
-179.55119323730469
 11
-501.80419921875
 21
-129.55119323730469
 13
-251.80421396041081
 23
-313.28846842320013
 14
-751.80421396041083
 24
-313.28846842320013
  0
DIMENSION
  8
lay-5
  2
*idi189
 10
-801.80419921875
 20
-179.55119323730469
 11
-776.80419921875
 21
-129.55119323730469
 13
-751.80421396041083
 23
-313.28846842320013
 14
-801.80421396041083
 24
-642.28846842320036
  0
LINE
  8
lay-2
 62
    2
 10
-246.80421396041081
 20
-318.28846842320007
 11
-201.80421396041081
 21
-318.28846842320007
  0
LINE
  8
lay-2
 62
    2
 10
-201.80421396041081
 20
-318.28846842320007
 11
-201.80421396041081
 21
-324.28846842320007
  0
LINE
  8
lay-2
 62
    2
 10
-201.80421396041081
 20
-324.28846842320007
 11
-246.80421396041081
 21
-324.28846842320007
  0
LINE
  8
lay-2
 62
    2
 10
-246.80421396041081
 20
-653.28846839950415
 11
-246.80421396041081
 21
-313.28846839950404
  0
LINE
  8
lay-2
 62
    2
 10
-256.80421396041083
 20
-313.28846834532715
 11
-256.80421396041083
 21
-653.28846834532737
  0
LINE
  8
lay-2
 62
    2
 10
-236.80421396041081
 20
-642.28846842320036
 11
-246.80421396041081
 21
-642.28846842320036
  0
LINE
  8
lay-2
 62
    2
 10
-246.80421396041081
 20
-648.28846842320036
 11
-236.80421396041081
 21
-648.28846842320036
  0
LINE
  8
lay-2
 62
    2
 10
-256.80421396041083
 20
-648.28846842320036
 11
-346.80421396041083
 21
-648.28846842320036
  0
LINE
  8
lay-2
 62
    2
 10
-256.80421396041083
 20
-642.28846842320036
 11
-346.80421396041083
 21
-642.28846842320036
  0
ARC
  8
lay-2
 62
    2
 10
-251.80421396041081
 20
-653.28846842320036
 40
5.0
 50
179.99999999999966
 51
360.0
  0
LINE
  8
lay-2
 62
    2
 10
-236.80421396041081
 20
-318.28846842320013
 11
-246.80421396041081
 21
-318.28846842320013
  0
LINE
  8
lay-2
 62
    2
 10
-256.80421396041083
 20
-324.28846842320013
 11
-346.80421396041083
 21
-324.28846842320013
  0
LINE
  8
lay-2
 62
    2
 10
-256.80421396041083
 20
-318.28846842320013
 11
-346.80421396041083
 21
-318.28846842320013
  0
CIRCLE
  8
lay-2
 62
    2
 10
-251.80421396041081
 20
-313.28846842320013
 40
5.0
  0
DIMENSION
  8
lay-5
  2
*idi214
 10
73.195785522460938
 20
-175.28091430664062
 11
35.695785999298096
 21
-125.28091430664062
 13
-1.8042139604107628
 23
-648.28846842320036
 14
73.195786039589251
 24
-339.28846842320041
  0
DIMENSION
  8
lay-5
  2
*idi219
 10
573.19580078125
 20
-175.28091430664062
 11
323.19579315185547
 21
-125.28091430664062
 13
73.195786039589251
 23
-339.28846842320041
 14
573.19578603958928
 24
-339.28846842320041
  0
DIMENSION
  8
lay-5
  2
*idi224
 10
648.19580078125
 20
-175.28091430664062
 11
610.69580078125
 21
-125.28091430664062
 13
573.19578603958928
 23
-339.28846842320041
 14
648.19578603958951
 24
-648.28846842320024
  0
LINE
  8
lay-2
 62
    2
 10
23.195786039589237
 20
-658.28846842320036
 11
-1.8042139604107623
 21
-658.28846842320036
  0
LINE
  8
lay-2
 62
    2
 10
-1.8042139604107623
 20
-658.28846842320036
 11
-1.8042139604107617
 21
-648.28846842320036
  0
LINE
  8
lay-2
 62
    2
 10
-1.8042139604107628
 20
-648.28846842320036
 11
23.195786039589237
 21
-648.28846842320036
  0
LINE
  8
lay-2
 62
    2
 10
623.19578603958951
 20
-658.28846842320024
 11
648.19578603958951
 21
-658.28846842320024
  0
LINE
  8
lay-2
 62
    2
 10
648.19578603958951
 20
-658.28846842320024
 11
648.19578603958951
 21
-648.28846842320024
  0
LINE
  8
lay-2
 62
    2
 10
648.19578603958951
 20
-648.28846842320024
 11
623.19578603958951
 21
-648.28846842320024
  0
CIRCLE
  8
lay-2
 62
    2
 10
623.19578603958928
 20
-645.28846842320036
 40
3.0
  0
LINE
  8
lay-2
 62
    2
 10
-766.80421396041095
 20
-642.28846842320036
 11
-756.80421396041095
 21
-642.28846842320036
  0
LINE
  8
lay-2
 62
    2
 10
-756.80421396041095
 20
-648.28846842320036
 11
-766.80421396041095
 21
-648.28846842320036
  0
LINE
  8
lay-2
 62
    2
 10
-766.80421396041095
 20
-318.28846842320013
 11
-756.80421396041095
 21
-318.28846842320013
  0
CIRCLE
  8
lay-2
 62
    2
 10
223.19578603958939
 20
-645.28846842320036
 40
3.0
  0
ARC
  8
lay-2
 62
    2
 10
247.19578603958922
 20
-627.28846842320036
 40
21.0
 50
270.0
 51
360.0
  0
ARC
  8
lay-2
 62
    2
 10
299.19578603958928
 20
-339.28846842320036
 40
21.0
 50
90.0
 51
180.0
  0
LINE
  8
lay-2
 62
    2
 10
268.19578603958928
 20
-339.28846842320036
 11
268.19578603958922
 21
-627.28846842320036
  0
ARC
  8
lay-2
 62
    2
 10
299.19578603958928
 20
-339.28846842320036
 40
31.0
 50
90.0
 51
180.0
  0
LINE
  8
lay-2
 62
    2
 10
278.19578603958928
 20
-627.28846842320036
 11
278.19578603958928
 21
-339.28846842320036
  0
ARC
  8
lay-2
 62
    2
 10
247.19578603958928
 20
-627.28846842320036
 40
31.0
 50
270.0
 51
360.0
  0
LINE
  8
lay-2
 62
    2
 10
299.19578603958928
 20
-318.28846842320036
 11
347.19578603958928
 21
-318.28846842320036
  0
ARC
  8
lay-2
 62
    2
 10
347.19578603958928
 20
-339.28846842320036
 40
21.0
 50
0.0
 51
90.0
  0
ARC
  8
lay-2
 62
    2
 10
399.19578603958922
 20
-627.28846842320036
 40
21.0
 50
180.0
 51
270.0
  0
LINE
  8
lay-2
 62
    2
 10
347.19578603958928
 20
-308.28846842320036
 11
299.19578603958928
 21
-308.28846842320036
  0
LINE
  8
lay-2
 62
    2
 10
378.19578603958922
 20
-627.28846842320036
 11
378.19578603958928
 21
-339.28846842320036
  0
ARC
  8
lay-2
 62
    2
 10
347.19578603958928
 20
-339.28846842320036
 40
31.0
 50
0.0
 51
90.0
  0
LINE
  8
lay-2
 62
    2
 10
368.19578603958928
 20
-339.28846842320036
 11
368.19578603958922
 21
-627.28846842320036
  0
ARC
  8
lay-2
 62
    2
 10
399.19578603958922
 20
-627.28846842320036
 40
31.0
 50
180.0
 51
270.0
  0
ARC
  8
lay-2
 62
    2
 10
447.19578603958928
 20
-627.28846842320036
 40
21.0
 50
270.0
 51
360.0
  0
ARC
  8
lay-2
 62
    2
 10
499.19578603958928
 20
-339.28846842320036
 40
21.0
 50
90.0
 51
180.0
  0
LINE
  8
lay-2
 62
    2
 10
-746.80421396041083
 20
-653.28846839950415
 11
-746.80421396041083
 21
-313.28846839950404
  0
LINE
  8
lay-2
 62
    2
 10
-756.80421396041083
 20
-313.28846834532715
 11
-756.80421396041083
 21
-653.28846834532737
  0
LINE
  8
lay-2
 62
    2
 10
468.19578603958928
 20
-339.28846842320036
 11
468.19578603958928
 21
-627.28846842320036
  0
ARC
  8
lay-2
 62
    2
 10
499.19578603958928
 20
-339.28846842320036
 40
31.0
 50
90.0
 51
180.0
  0
ARC
  8
lay-2
 62
    2
 10
-751.80421396041083
 20
-653.28846842320036
 40
5.0
 50
179.99999999999966
 51
360.0
  0
LINE
  8
lay-2
 62
    2
 10
478.19578603958928
 20
-627.28846842320036
 11
478.19578603958928
 21
-339.28846842320036
  0
ARC
  8
lay-2
 62
    2
 10
447.19578603958928
 20
-627.28846842320036
 40
31.0
 50
270.0
 51
360.0
  0
CIRCLE
  8
lay-2
 62
    2
 10
-751.80421396041083
 20
-313.28846842320013
 40
5.0
  0
LINE
  8
lay-2
 62
    2
 10
499.19578603958928
 20
-318.28846842320036
 11
547.19578603958928
 21
-318.28846842320036
  0
LINE
  8
lay-2
 62
    2
 10
547.19578603958928
 20
-308.28846842320036
 11
499.19578603958928
 21
-308.28846842320036
  0
LINE
  8
lay-2
 62
    2
 10
447.19578603958917
 20
-648.28846842320036
 11
399.19578603958922
 21
-648.28846842320036
  0
LINE
  8
lay-2
 62
    2
 10
399.19578603958922
 20
-658.28846842320036
 11
447.19578603958928
 21
-658.28846842320036
  0
CIRCLE
  8
lay-2
 62
    2
 10
423.19578603958934
 20
-645.28846842320036
 40
3.0
  0
LINE
  8
lay-2
 62
    2
 10
-356.80421396041083
 20
-648.28846842320036
 11
-446.80421396041083
 21
-648.28846842320036
  0
LINE
  8
lay-2
 62
    2
 10
-346.80421396041083
 20
-653.28846839950415
 11
-346.80421396041083
 21
-313.28846839950404
  0
LINE
  8
lay-2
 62
    2
 10
-356.80421396041083
 20
-313.28846834532715
 11
-356.80421396041083
 21
-653.28846834532737
  0
ARC
  8
lay-2
 62
    2
 10
-351.80421396041083
 20
-653.28846842320036
 40
5.0
 50
179.99999999999966
 51
360.0
  0
CIRCLE
  8
lay-2
 62
    2
 10
-351.80421396041083
 20
-313.28846842320013
 40
5.0
  0
LINE
  8
lay-2
 62
    2
 10
-356.80421396041083
 20
-318.28846842320013
 11
-446.80421396041083
 21
-318.28846842320013
  0
LINE
  8
lay-2
 62
    2
 10
-356.80421396041083
 20
-324.28846842320013
 11
-446.80421396041083
 21
-324.28846842320013
  0
LINE
  8
lay-2
 62
    2
 10
-356.80421396041083
 20
-642.28846842320036
 11
-446.80421396041083
 21
-642.28846842320036
  0
LINE
  8
lay-2
 62
    2
 10
-456.80421396041083
 20
-648.28846842320036
 11
-546.80421396041083
 21
-648.28846842320036
  0
LINE
  8
lay-2
 62
    2
 10
-446.80421396041083
 20
-653.28846839950415
 11
-446.80421396041083
 21
-313.28846839950404
  0
LINE
  8
lay-2
 62
    2
 10
-456.80421396041083
 20
-313.28846834532715
 11
-456.80421396041083
 21
-653.28846834532737
  0
ARC
  8
lay-2
 62
    2
 10
-451.80421396041083
 20
-653.28846842320036
 40
5.0
 50
179.99999999999966
 51
360.0
  0
CIRCLE
  8
lay-2
 62
    2
 10
-451.80421396041083
 20
-313.28846842320013
 40
5.0
  0
LINE
  8
lay-2
 62
    2
 10
-456.80421396041083
 20
-318.28846842320013
 11
-546.80421396041083
 21
-318.28846842320013
  0
LINE
  8
lay-2
 62
    2
 10
-456.80421396041083
 20
-324.28846842320013
 11
-546.80421396041083
 21
-324.28846842320013
  0
LINE
  8
lay-2
 62
    2
 10
-456.80421396041083
 20
-642.28846842320036
 11
-546.80421396041083
 21
-642.28846842320036
  0
LINE
  8
lay-2
 62
    2
 10
-556.80421396041083
 20
-648.28846842320036
 11
-646.80421396041083
 21
-648.28846842320036
  0
LINE
  8
lay-2
 62
    2
 10
-546.80421396041083
 20
-653.28846839950415
 11
-546.80421396041083
 21
-313.28846839950404
  0
LINE
  8
lay-2
 62
    2
 10
-556.80421396041083
 20
-313.28846834532715
 11
-556.80421396041083
 21
-653.28846834532737
  0
ARC
  8
lay-2
 62
    2
 10
-551.80421396041083
 20
-653.28846842320036
 40
5.0
 50
179.99999999999966
 51
360.0
  0
CIRCLE
  8
lay-2
 62
    2
 10
-551.80421396041083
 20
-313.28846842320013
 40
5.0
  0
LINE
  8
lay-2
 62
    2
 10
-556.80421396041083
 20
-318.28846842320013
 11
-646.80421396041083
 21
-318.28846842320013
  0
LINE
  8
lay-2
 62
    2
 10
-556.80421396041083
 20
-324.28846842320013
 11
-646.80421396041083
 21
-324.28846842320013
  0
LINE
  8
lay-2
 62
    2
 10
-556.80421396041083
 20
-642.28846842320036
 11
-646.80421396041083
 21
-642.28846842320036
  0
LINE
  8
lay-2
 62
    2
 10
-656.80421396041083
 20
-648.28846842320036
 11
-746.80421396041083
 21
-648.28846842320036
  0
LINE
  8
lay-2
 62
    2
 10
-646.80421396041083
 20
-653.28846839950415
 11
-646.80421396041083
 21
-313.28846839950404
  0
LINE
  8
lay-2
 62
    2
 10
-656.80421396041083
 20
-313.28846834532715
 11
-656.80421396041083
 21
-653.28846834532737
  0
ARC
  8
lay-2
 62
    2
 10
-651.80421396041083
 20
-653.28846842320036
 40
5.0
 50
179.99999999999966
 51
360.0
  0
CIRCLE
  8
lay-2
 62
    2
 10
-651.80421396041083
 20
-313.28846842320013
 40
5.0
  0
LINE
  8
lay-2
 62
    2
 10
-656.80421396041083
 20
-318.28846842320013
 11
-746.80421396041083
 21
-318.28846842320013
  0
LINE
  8
lay-2
 62
    2
 10
-656.80421396041083
 20
-324.28846842320013
 11
-746.80421396041083
 21
-324.28846842320013
  0
LINE
  8
lay-2
 62
    2
 10
-656.80421396041083
 20
-642.28846842320036
 11
-746.80421396041083
 21
-642.28846842320036
  0
TEXT
  8
lay-6
 10
1562.2911376953125
 20
-425.80300903320312
 40
50.0
  1
L.S. 6 %%c 10 Lg. var.
 41
0.80000000000000004
  0
TEXT
  8
lay-6
 10
1553.5731201171875
 20
-547.854736328125
 40
50.0
  1
Q.S. 7 %%c 6 Lg. 600mm
 41
0.80000000000000004
  0
ENDSEC
  0
EOF
