  0
SECTION
  2
HEADER
  9
$EXTMIN
 10
-2341.4360652153
 20
-3760.81982421875
  9
$EXTMAX
 10
2437.1147761528
 20
-776.0941162109375
  9
$DIMASZ
 40
40.0
  9
$DIMTXT
 40
50.0
  0
ENDSEC
  0
SECTION
  2
TABLES
  0
TABLE
  2
LTYPE
 70
  126
  0
LTYPE
  2
CONTINUOUS
 70
   64
  3
Solid line
 72
   65
 73
    0
 40
0.0
  0
LTYPE
  2
HIDDEN
 70
   64
  3
_ _ _ _ _ _ _ _ _ _ _ _ _ _ _ _ _ _ _ _ _ _ _
 72
   65
 73
    2
 40
0.375
 49
0.25
 49
-0.125
  0
LTYPE
  2
CENTER
 70
   64
  3
____ _ ____ _ ____ _ ____ _ ____ _ ____ _ ____
 72
   65
 73
    4
 40
2.0
 49
1.25
 49
-0.25
 49
0.25
 49
-0.25
  0
LTYPE
  2
DASHED
 70
   64
  3
__ __ __ __ __ __ __ __ __ __ __ __ __ __ __
 72
   65
 73
    2
 40
1.5
 49
1.25
 49
-0.25
  0
LTYPE
  2
LT-7
 70
   64
  3
METlt
 72
   65
 73
    6
 40
7.9199998453259468
 49
3.5999999195337296
 49
-1.1999999731779099
 49
0.36000000312924385
 49
-1.1999999731779099
 49
0.36000000312924385
 49
-1.1999999731779099
  0
LTYPE
  2
LT-8
 70
   64
  3
METlt
 72
   65
 73
    4
 40
6.3599998690187931
 49
3.5999999195337296
 49
-1.1999999731779099
 49
0.36000000312924385
 49
-1.1999999731779099
  0
LTYPE
  2
LT-9
 70
   64
  3
METlt
 72
   65
 73
    4
 40
6.3599998690187931
 49
3.5999999195337296
 49
-1.1999999731779099
 49
0.36000000312924385
 49
-1.1999999731779099
  0
LTYPE
  2
LT-10
 70
   64
  3
METlt
 72
   65
 73
    2
 40
5.9999998658895493
 49
3.5999999195337296
 49
-2.3999999463558197
  0
LTYPE
  2
LT-11
 70
   64
  3
METlt
 72
   65
 73
    6
 40
11.159999761730433
 49
3.5999999195337296
 49
-1.1999999731779099
 49
3.5999999195337296
 49
-1.1999999731779099
 49
0.36000000312924385
 49
-1.1999999731779099
  0
LTYPE
  2
LT-12
 70
   64
  3
METlt
 72
   65
 73
    4
 40
3.2399999443441629
 49
1.7999999597668648
 49
-0.59999998658895493
 49
0.24000001139938831
 49
-0.59999998658895493
  0
ENDTAB
  0
TABLE
  2
LAYER
 70
    4
  0
LAYER
  2
lay-0
 70
    0
 62
    7
  6
CONTINUOUS
  0
LAYER
  2
lay-2
 70
    0
 62
    7
  6
CONTINUOUS
  0
LAYER
  2
lay-5
 70
    0
 62
    7
  6
CONTINUOUS
  0
LAYER
  2
lay-6
 70
    0
 62
    7
  6
CONTINUOUS
  0
ENDTAB
  0
TABLE
  2
STYLE
 70
  256
  0
STYLE
  2
STANDARD
 70
   64
 40
0.0
 41
1.0
 50
0.0
 71
    0
 42
20.0
  3
TXT
  4

  0
ENDTAB
  0
ENDSEC
  0
SECTION
  2
BLOCKS
  0
BLOCK
  8
lay-0
  2
*idi306
 70
    1
 10
0.0
 20
0.0
  0
LINE
  8
lay-5
 10
-1.8042140007019043
 20
-2458.28857421875
 11
-1.8042140007019043
 21
-2626.480712890625
  0
LINE
  8
lay-5
 10
1248.19580078125
 20
-2458.28857421875
 11
1248.19580078125
 21
-2626.480712890625
  0
LINE
  8
lay-5
 10
-1.8042140007019043
 20
-2615.7626953125
 11
1248.19580078125
 21
-2615.7626953125
  0
LINE
  8
lay-5
 10
38.195785999298096
 20
-2621.0287952159956
 11
-1.8042140007019043
 21
-2615.7626953125
  0
LINE
  8
lay-5
 10
-1.8042140007019043
 20
-2615.7626953125
 11
38.195785999298096
 21
-2610.4965954090039
  0
LINE
  8
lay-5
 10
38.195785999298096
 20
-2610.4965954090039
 11
38.195785999298096
 21
-2621.0287952159956
  0
LINE
  8
lay-5
 10
1208.19580078125
 20
-2610.4965954090044
 11
1248.19580078125
 21
-2615.7626953125
  0
LINE
  8
lay-5
 10
1248.19580078125
 20
-2615.7626953125
 11
1208.19580078125
 21
-2621.0287952159961
  0
LINE
  8
lay-5
 10
1208.19580078125
 20
-2621.0287952159961
 11
1208.19580078125
 21
-2610.4965954090044
  0
TEXT
  8
lay-5
 10
535.69580078125
 20
-2590.7626953125
 40
50.0
  1
1250
 41
1.05
  0
ENDBLK
  8
lay-0
  0
BLOCK
  8
lay-0
  2
*idi311
 70
    1
 10
0.0
 20
0.0
  0
LINE
  8
lay-5
 10
-1401.80419921875
 20
-2448.447265625
 11
-1401.80419921875
 21
-2625.35888671875
  0
LINE
  8
lay-5
 10
-201.80421447753906
 20
-2448.28857421875
 11
-201.80421447753906
 21
-2625.35888671875
  0
LINE
  8
lay-5
 10
-1401.80419921875
 20
-2614.640869140625
 11
-201.80421447753906
 21
-2614.640869140625
  0
LINE
  8
lay-5
 10
-1361.80419921875
 20
-2619.9069690441206
 11
-1401.80419921875
 21
-2614.640869140625
  0
LINE
  8
lay-5
 10
-1401.80419921875
 20
-2614.640869140625
 11
-1361.80419921875
 21
-2609.3747692371289
  0
LINE
  8
lay-5
 10
-1361.80419921875
 20
-2609.3747692371289
 11
-1361.80419921875
 21
-2619.9069690441206
  0
LINE
  8
lay-5
 10
-241.80421447753906
 20
-2609.3747692371294
 11
-201.80421447753906
 21
-2614.640869140625
  0
LINE
  8
lay-5
 10
-201.80421447753906
 20
-2614.640869140625
 11
-241.80421447753906
 21
-2619.9069690441211
  0
LINE
  8
lay-5
 10
-241.80421447753906
 20
-2619.9069690441211
 11
-241.80421447753906
 21
-2609.3747692371294
  0
TEXT
  8
lay-5
 10
-889.30419921875
 20
-2589.640869140625
 40
50.0
  1
1200
 41
1.05
  0
ENDBLK
  8
lay-0
  0
BLOCK
  8
lay-0
  2
*idi341
 70
    1
 10
0.0
 20
0.0
  0
LINE
  8
lay-5
 10
-1401.80419921875
 20
-2442.447265625
 11
-1401.80419921875
 21
-1975.3087158203125
  0
LINE
  8
lay-5
 10
-1351.80419921875
 20
-2113.28857421875
 11
-1351.80419921875
 21
-1975.3087158203125
  0
LINE
  8
lay-5
 10
-1401.80419921875
 20
-1986.0267333984375
 11
-1351.80419921875
 21
-1986.0267333984375
  0
LINE
  8
lay-5
 10
-1361.80419921875
 20
-1991.2928333019333
 11
-1401.80419921875
 21
-1986.0267333984375
  0
LINE
  8
lay-5
 10
-1401.80419921875
 20
-1986.0267333984375
 11
-1361.80419921875
 21
-1980.7606334949417
  0
LINE
  8
lay-5
 10
-1361.80419921875
 20
-1980.7606334949417
 11
-1361.80419921875
 21
-1991.2928333019333
  0
LINE
  8
lay-5
 10
-1391.80419921875
 20
-1980.7606334949417
 11
-1351.80419921875
 21
-1986.0267333984375
  0
LINE
  8
lay-5
 10
-1351.80419921875
 20
-1986.0267333984375
 11
-1391.80419921875
 21
-1991.2928333019333
  0
LINE
  8
lay-5
 10
-1391.80419921875
 20
-1991.2928333019333
 11
-1391.80419921875
 21
-1980.7606334949417
  0
TEXT
  8
lay-5
 10
-1420.55419921875
 20
-1961.0267333984375
 40
50.0
  1
50
 41
1.05
  0
ENDBLK
  8
lay-0
  0
BLOCK
  8
lay-0
  2
*idi296
 70
    1
 10
0.0
 20
0.0
  0
LINE
  8
lay-5
 10
1248.19580078125
 20
-2458.28857421875
 11
1408.4237060546875
 21
-2458.28857421875
  0
LINE
  8
lay-5
 10
1147.19580078125
 20
-2108.28857421875
 11
1408.4237060546875
 21
-2108.28857421875
  0
LINE
  8
lay-5
 10
1397.7056884765625
 20
-2458.28857421875
 11
1397.7056884765625
 21
-2108.28857421875
  0
LINE
  8
lay-5
 10
1402.9717883800583
 20
-2418.28857421875
 11
1397.7056884765625
 21
-2458.28857421875
  0
LINE
  8
lay-5
 10
1397.7056884765625
 20
-2458.28857421875
 11
1392.4395885730667
 21
-2418.28857421875
  0
LINE
  8
lay-5
 10
1392.4395885730667
 20
-2418.28857421875
 11
1402.9717883800583
 21
-2418.28857421875
  0
LINE
  8
lay-5
 10
1392.4395885730667
 20
-2148.28857421875
 11
1397.7056884765625
 21
-2108.28857421875
  0
LINE
  8
lay-5
 10
1397.7056884765625
 20
-2108.28857421875
 11
1402.9717883800583
 21
-2148.28857421875
  0
LINE
  8
lay-5
 10
1402.9717883800583
 20
-2148.28857421875
 11
1392.4395885730667
 21
-2148.28857421875
  0
TEXT
  8
lay-5
 10
1495.4423828125
 20
-2469.64697265625
 40
50.0
  1
120-1000
 50
90.0
 41
1.05
  0
ENDBLK
  8
lay-0
  0
BLOCK
  8
lay-0
  2
*idi316
 70
    1
 10
0.0
 20
0.0
  0
LINE
  8
lay-5
 10
1173.19580078125
 20
-2139.28857421875
 11
1173.19580078125
 21
-1974.71533203125
  0
LINE
  8
lay-5
 10
1248.19580078125
 20
-2448.28857421875
 11
1248.19580078125
 21
-1974.71533203125
  0
LINE
  8
lay-5
 10
1173.19580078125
 20
-1985.433349609375
 11
1248.19580078125
 21
-1985.433349609375
  0
LINE
  8
lay-5
 10
1213.19580078125
 20
-1990.6994495128708
 11
1173.19580078125
 21
-1985.433349609375
  0
LINE
  8
lay-5
 10
1173.19580078125
 20
-1985.433349609375
 11
1213.19580078125
 21
-1980.1672497058792
  0
LINE
  8
lay-5
 10
1213.19580078125
 20
-1980.1672497058792
 11
1213.19580078125
 21
-1990.6994495128708
  0
LINE
  8
lay-5
 10
1208.19580078125
 20
-1980.1672497058792
 11
1248.19580078125
 21
-1985.433349609375
  0
LINE
  8
lay-5
 10
1248.19580078125
 20
-1985.433349609375
 11
1208.19580078125
 21
-1990.6994495128708
  0
LINE
  8
lay-5
 10
1208.19580078125
 20
-1990.6994495128708
 11
1208.19580078125
 21
-1980.1672497058792
  0
TEXT
  8
lay-5
 10
1166.94580078125
 20
-1960.433349609375
 40
50.0
  1
75
 41
1.05
  0
ENDBLK
  8
lay-0
  0
BLOCK
  8
lay-0
  2
*idi321
 70
    1
 10
0.0
 20
0.0
  0
LINE
  8
lay-5
 10
73.195785522460938
 20
-2139.28857421875
 11
73.195785522460938
 21
-1974.71533203125
  0
LINE
  8
lay-5
 10
1173.19580078125
 20
-2139.28857421875
 11
1173.19580078125
 21
-1974.71533203125
  0
LINE
  8
lay-5
 10
73.195785522460938
 20
-1985.433349609375
 11
1173.19580078125
 21
-1985.433349609375
  0
LINE
  8
lay-5
 10
113.19578552246094
 20
-1990.6994495128708
 11
73.195785522460938
 21
-1985.433349609375
  0
LINE
  8
lay-5
 10
73.195785522460938
 20
-1985.433349609375
 11
113.19578552246094
 21
-1980.1672497058792
  0
LINE
  8
lay-5
 10
113.19578552246094
 20
-1980.1672497058792
 11
113.19578552246094
 21
-1990.6994495128708
  0
LINE
  8
lay-5
 10
1133.19580078125
 20
-1980.1672497058792
 11
1173.19580078125
 21
-1985.433349609375
  0
LINE
  8
lay-5
 10
1173.19580078125
 20
-1985.433349609375
 11
1133.19580078125
 21
-1990.6994495128708
  0
LINE
  8
lay-5
 10
1133.19580078125
 20
-1990.6994495128708
 11
1133.19580078125
 21
-1980.1672497058792
  0
TEXT
  8
lay-5
 10
544.44580078125
 20
-1960.433349609375
 40
50.0
  1
1100
 41
1.05
  0
ENDBLK
  8
lay-0
  0
BLOCK
  8
lay-0
  2
*idi326
 70
    1
 10
0.0
 20
0.0
  0
LINE
  8
lay-5
 10
-1351.80419921875
 20
-2113.28857421875
 11
-1351.80419921875
 21
-1975.3087158203125
  0
LINE
  8
lay-5
 10
-251.80421447753906
 20
-2113.28857421875
 11
-251.80421447753906
 21
-1975.3087158203125
  0
LINE
  8
lay-5
 10
-1351.80419921875
 20
-1986.0267333984375
 11
-251.80421447753906
 21
-1986.0267333984375
  0
LINE
  8
lay-5
 10
-1311.80419921875
 20
-1991.2928333019333
 11
-1351.80419921875
 21
-1986.0267333984375
  0
LINE
  8
lay-5
 10
-1351.80419921875
 20
-1986.0267333984375
 11
-1311.80419921875
 21
-1980.7606334949417
  0
LINE
  8
lay-5
 10
-1311.80419921875
 20
-1980.7606334949417
 11
-1311.80419921875
 21
-1991.2928333019333
  0
LINE
  8
lay-5
 10
-291.80421447753906
 20
-1980.7606334949417
 11
-251.80421447753906
 21
-1986.0267333984375
  0
LINE
  8
lay-5
 10
-251.80421447753906
 20
-1986.0267333984375
 11
-291.80421447753906
 21
-1991.2928333019333
  0
LINE
  8
lay-5
 10
-291.80421447753906
 20
-1991.2928333019333
 11
-291.80421447753906
 21
-1980.7606334949417
  0
TEXT
  8
lay-5
 10
-880.55419921875
 20
-1961.0267333984375
 40
50.0
  1
1100
 41
1.05
  0
ENDBLK
  8
lay-0
  0
BLOCK
  8
lay-0
  2
*idi331
 70
    1
 10
0.0
 20
0.0
  0
LINE
  8
lay-5
 10
-251.80421447753906
 20
-2113.28857421875
 11
-251.80421447753906
 21
-1975.3087158203125
  0
LINE
  8
lay-5
 10
-201.80421447753906
 20
-2121.28857421875
 11
-201.80421447753906
 21
-1975.3087158203125
  0
LINE
  8
lay-5
 10
-251.80421447753906
 20
-1986.0267333984375
 11
-201.80421447753906
 21
-1986.0267333984375
  0
LINE
  8
lay-5
 10
-211.80421447753906
 20
-1991.2928333019333
 11
-251.80421447753906
 21
-1986.0267333984375
  0
LINE
  8
lay-5
 10
-251.80421447753906
 20
-1986.0267333984375
 11
-211.80421447753906
 21
-1980.7606334949417
  0
LINE
  8
lay-5
 10
-211.80421447753906
 20
-1980.7606334949417
 11
-211.80421447753906
 21
-1991.2928333019333
  0
LINE
  8
lay-5
 10
-241.80421447753906
 20
-1980.7606334949417
 11
-201.80421447753906
 21
-1986.0267333984375
  0
LINE
  8
lay-5
 10
-201.80421447753906
 20
-1986.0267333984375
 11
-241.80421447753906
 21
-1991.2928333019333
  0
LINE
  8
lay-5
 10
-241.80421447753906
 20
-1991.2928333019333
 11
-241.80421447753906
 21
-1980.7606334949417
  0
TEXT
  8
lay-5
 10
-270.55419921875
 20
-1961.0267333984375
 40
50.0
  1
50
 41
1.05
  0
ENDBLK
  8
lay-0
  0
BLOCK
  8
lay-0
  2
*idi336
 70
    1
 10
0.0
 20
0.0
  0
LINE
  8
lay-5
 10
-1.8042140007019043
 20
-2448.28857421875
 11
-1.8042140007019043
 21
-1974.71533203125
  0
LINE
  8
lay-5
 10
73.195785522460938
 20
-2139.28857421875
 11
73.195785522460938
 21
-1974.71533203125
  0
LINE
  8
lay-5
 10
-1.8042140007019043
 20
-1985.433349609375
 11
73.195785522460938
 21
-1985.433349609375
  0
LINE
  8
lay-5
 10
38.195785999298096
 20
-1990.6994495128708
 11
-1.8042140007019043
 21
-1985.433349609375
  0
LINE
  8
lay-5
 10
-1.8042140007019043
 20
-1985.433349609375
 11
38.195785999298096
 21
-1980.1672497058792
  0
LINE
  8
lay-5
 10
38.195785999298096
 20
-1980.1672497058792
 11
38.195785999298096
 21
-1990.6994495128708
  0
LINE
  8
lay-5
 10
33.195785522460937
 20
-1980.1672497058792
 11
73.195785522460938
 21
-1985.433349609375
  0
LINE
  8
lay-5
 10
73.195785522460938
 20
-1985.433349609375
 11
33.195785522460937
 21
-1990.6994495128708
  0
LINE
  8
lay-5
 10
33.195785522460937
 20
-1990.6994495128708
 11
33.195785522460937
 21
-1980.1672497058792
  0
TEXT
  8
lay-5
 10
-8.0542135238647461
 20
-1960.433349609375
 40
50.0
  1
75
 41
1.05
  0
ENDBLK
  8
lay-0
  0
ENDSEC
  0
SECTION
  2
ENTITIES
  0
DIMENSION
  8
lay-5
  2
*idi306
 10
1248.19580078125
 20
-2615.7626953125
 11
623.19580078125
 21
-2565.7626953125
 13
-1.8042139604109462
 23
-2458.2884684232004
 14
1248.1957860395892
 24
-2458.2884684231999
  0
LINE
  8
lay-2
 62
    2
 10
-246.80421396041109
 20
-2442.2884684231999
 11
-201.80421396041109
 21
-2442.2884684231999
  0
DIMENSION
  8
lay-5
  2
*idi311
 10
-201.80421447753906
 20
-2614.640869140625
 11
-801.80419921875
 21
-2564.640869140625
 13
-1401.8042139604111
 23
-2448.4473820016842
 14
-201.80421396041109
 24
-2448.2884684231999
  0
DIMENSION
  8
lay-5
  2
*idi341
 10
-1351.80419921875
 20
-1986.0267333984375
 11
-1376.80419921875
 21
-1936.0267333984375
 13
-1401.8042139604111
 23
-2442.4473820016842
 14
-1351.8042139604111
 24
-2113.2884684231999
  0
TEXT
  8
lay-6
 10
-2215.4111328125
 20
-2340.99951171875
 40
75.0
  1
FIDECA Typ 12
 41
0.80000000000000004
  0
DIMENSION
  8
lay-5
  2
*idi296
 10
1397.7056884765625
 20
-2108.28857421875
 11
1470.4423828125
 21
-2285.89697265625
  1
120-1000
 13
1248.1957860395892
 23
-2458.2884684231999
 14
1147.1957860395892
 24
-2108.2884684232004
 50
90.0
  0
LINE
  8
lay-5
 62
    6
 10
68.195786039588995
 20
-2139.2884684231999
 11
73.195786039588995
 21
-2139.2884684231999
  0
DIMENSION
  8
lay-5
  2
*idi316
 10
1248.19580078125
 20
-1985.433349609375
 11
1210.69580078125
 21
-1935.433349609375
 13
1173.1957860395889
 23
-2139.2884684231999
 14
1248.1957860395892
 24
-2448.2884684231999
  0
DIMENSION
  8
lay-5
  2
*idi321
 10
1173.19580078125
 20
-1985.433349609375
 11
623.19580078125
 21
-1935.433349609375
 13
73.195786039588995
 23
-2139.2884684231999
 14
1173.1957860395889
 24
-2139.2884684231999
  0
DIMENSION
  8
lay-5
  2
*idi326
 10
-251.80421447753906
 20
-1986.0267333984375
 11
-801.80419921875
 21
-1936.0267333984375
 13
-1351.8042139604111
 23
-2113.2884684231999
 14
-251.80421396041106
 24
-2113.2884684231999
  0
DIMENSION
  8
lay-5
  2
*idi331
 10
-201.80421447753906
 20
-1986.0267333984375
 11
-226.80420684814453
 21
-1936.0267333984375
 13
-251.80421396041106
 23
-2113.2884684231999
 14
-201.80421396041109
 24
-2121.2884684231999
  0
LINE
  8
lay-5
 62
    6
 10
1178.1957860395889
 20
-2139.2884684231999
 11
1173.1957860395889
 21
-2139.2884684231999
  0
DIMENSION
  8
lay-5
  2
*idi336
 10
73.195785522460938
 20
-1985.433349609375
 11
35.695785999298096
 21
-1935.433349609375
 13
-1.8042139604109455
 23
-2448.2884684232004
 14
73.195786039588995
 24
-2139.2884684231999
  0
LINE
  8
lay-2
 62
    2
 10
-1356.561760818937
 20
-2442.4473820016842
 11
-1401.561760818937
 21
-2442.4473820016842
  0
LINE
  8
lay-2
 62
    2
 10
-1401.561760818937
 20
-2448.4473820016842
 11
-1356.561760818937
 21
-2448.4473820016842
  0
LINE
  8
lay-2
 62
    2
 10
-201.80421396041109
 20
-2442.2884684231999
 11
-201.80421396041109
 21
-2448.2884684231999
  0
LINE
  8
lay-2
 62
    2
 10
-201.80421396041109
 20
-2448.2884684231999
 11
-246.80421396041109
 21
-2448.2884684231999
  0
LINE
  8
lay-5
 62
    6
 10
-1356.8042139604111
 20
-2448.4473820016842
 11
-1401.8042139604111
 21
-2448.4473820016842
  0
LINE
  8
lay-2
 62
    2
 10
-1401.8042139604111
 20
-2448.4473820016842
 11
-1401.8042139604111
 21
-2442.4473820016842
  0
LINE
  8
lay-5
 62
    6
 10
-1401.8042139604111
 20
-2442.4473820016842
 11
-1356.8042139604111
 21
-2442.4473820016842
  0
CIRCLE
  8
lay-2
 62
    2
 10
123.195786039589
 20
-2121.2884684231999
 40
3.0
  0
CIRCLE
  8
lay-2
 62
    2
 10
323.195786039589
 20
-2121.2884684231999
 40
3.0
  0
TEXT
  8
lay-6
 10
1553.5731201171875
 20
-2361.19482421875
 40
50.0
  1
Q.S. 13 %%c 6 Lg. 1200mm
 41
0.80000000000000004
  0
LINE
  8
lay-2
 62
    2
 10
-246.80421396041106
 20
-2453.2884683995039
 11
-246.80421396041106
 21
-2113.2884683995039
  0
LINE
  8
lay-2
 62
    2
 10
-256.80421396041106
 20
-2113.2884683453267
 11
-256.80421396041106
 21
-2453.2884683453271
  0
LINE
  8
lay-2
 62
    2
 10
-236.80421396041106
 20
-2442.2884684232004
 11
-246.80421396041106
 21
-2442.2884684232004
  0
LINE
  8
lay-2
 62
    2
 10
-246.80421396041106
 20
-2448.2884684232004
 11
-236.80421396041106
 21
-2448.2884684232004
  0
LINE
  8
lay-2
 62
    2
 10
-256.80421396041106
 20
-2448.2884684232004
 11
-346.80421396041106
 21
-2448.2884684232004
  0
LINE
  8
lay-2
 62
    2
 10
-256.80421396041106
 20
-2442.2884684232004
 11
-346.80421396041106
 21
-2442.2884684232004
  0
ARC
  8
lay-2
 62
    2
 10
-251.80421396041106
 20
-2453.2884684232004
 40
5.0
 50
179.99999999999966
 51
360.0
  0
LINE
  8
lay-2
 62
    2
 10
-236.80421396041106
 20
-2118.2884684231999
 11
-246.80421396041106
 21
-2118.2884684231999
  0
LINE
  8
lay-2
 62
    2
 10
-256.80421396041106
 20
-2124.2884684231999
 11
-346.80421396041106
 21
-2124.2884684231999
  0
LINE
  8
lay-2
 62
    2
 10
-256.80421396041106
 20
-2118.2884684231999
 11
-346.80421396041106
 21
-2118.2884684231999
  0
CIRCLE
  8
lay-2
 62
    2
 10
-251.80421396041106
 20
-2113.2884684231999
 40
5.0
  0
CIRCLE
  8
lay-2
 62
    2
 10
523.19578603958894
 20
-2121.2884684231999
 40
3.0
  0
CIRCLE
  8
lay-2
 62
    2
 10
723.19578603958894
 20
-2121.2884684231999
 40
3.0
  0
CIRCLE
  8
lay-2
 62
    2
 10
923.19578603958894
 20
-2121.2884684231999
 40
3.0
  0
CIRCLE
  8
lay-2
 62
    2
 10
1123.1957860395889
 20
-2121.2884684231999
 40
3.0
  0
LINE
  8
lay-2
 62
    2
 10
-1356.8042139604111
 20
-2118.2884684231999
 11
-1401.8042139604111
 21
-2118.2884684231999
  0
LINE
  8
lay-2
 62
    2
 10
-1401.8042139604111
 20
-2118.2884684231999
 11
-1401.8042139604111
 21
-2124.2884684231999
  0
LINE
  8
lay-2
 62
    2
 10
-1401.8042139604111
 20
-2124.2884684231999
 11
-1356.8042139604111
 21
-2124.2884684231999
  0
LINE
  8
lay-2
 62
    2
 10
-246.80421396041109
 20
-2118.2884684231999
 11
-201.80421396041109
 21
-2118.2884684231999
  0
LINE
  8
lay-2
 62
    2
 10
-201.80421396041109
 20
-2118.2884684231999
 11
-201.80421396041109
 21
-2124.2884684231999
  0
LINE
  8
lay-2
 62
    2
 10
-201.80421396041109
 20
-2124.2884684231999
 11
-246.80421396041109
 21
-2124.2884684231999
  0
LINE
  8
lay-2
 62
    2
 10
-346.80421396041106
 20
-2453.2884683995039
 11
-346.80421396041106
 21
-2113.2884683995039
  0
LINE
  8
lay-2
 62
    2
 10
-356.80421396041106
 20
-2113.2884683453267
 11
-356.80421396041106
 21
-2453.2884683453271
  0
LINE
  8
lay-2
 62
    2
 10
-356.80421396041106
 20
-2448.2884684232004
 11
-446.80421396041106
 21
-2448.2884684232004
  0
LINE
  8
lay-2
 62
    2
 10
-356.80421396041106
 20
-2442.2884684232004
 11
-446.80421396041106
 21
-2442.2884684232004
  0
ARC
  8
lay-2
 62
    2
 10
-351.80421396041106
 20
-2453.2884684232004
 40
5.0
 50
179.99999999999966
 51
360.0
  0
LINE
  8
lay-2
 62
    2
 10
-356.80421396041106
 20
-2124.2884684231999
 11
-446.80421396041106
 21
-2124.2884684231999
  0
LINE
  8
lay-2
 62
    2
 10
-356.80421396041106
 20
-2118.2884684231999
 11
-446.80421396041106
 21
-2118.2884684231999
  0
CIRCLE
  8
lay-2
 62
    2
 10
-351.80421396041106
 20
-2113.2884684231999
 40
5.0
  0
ARC
  8
lay-2
 62
    2
 10
47.19578603958896
 20
-2427.2884684232004
 40
21.0
 50
270.0
 51
360.0
  0
ARC
  8
lay-2
 62
    2
 10
99.195786039589009
 20
-2139.2884684232004
 40
21.0
 50
90.0
 51
180.0
  0
LINE
  8
lay-2
 62
    2
 10
99.195786039589009
 20
-2118.2884684232004
 11
147.19578603958902
 21
-2118.2884684232004
  0
ARC
  8
lay-2
 62
    2
 10
147.19578603958902
 20
-2139.2884684232004
 40
21.0
 50
0.0
 51
90.0
  0
ARC
  8
lay-2
 62
    2
 10
199.19578603958897
 20
-2427.2884684232004
 40
21.0
 50
180.0
 51
270.0
  0
LINE
  8
lay-2
 62
    2
 10
68.195786039588995
 20
-2139.2884684232004
 11
68.195786039588953
 21
-2427.2884684232004
  0
ARC
  8
lay-2
 62
    2
 10
99.195786039588995
 20
-2139.2884684232004
 40
31.0
 50
90.0
 51
180.0
  0
LINE
  8
lay-2
 62
    2
 10
147.195786039589
 20
-2108.2884684232004
 11
99.195786039588995
 21
-2108.2884684232004
  0
LINE
  8
lay-2
 62
    2
 10
178.19578603958897
 20
-2427.2884684232004
 11
178.195786039589
 21
-2139.2884684232004
  0
ARC
  8
lay-2
 62
    2
 10
147.195786039589
 20
-2139.2884684232004
 40
31.0
 50
0.0
 51
90.0
  0
LINE
  8
lay-2
 62
    2
 10
168.19578603958902
 20
-2139.2884684232004
 11
168.19578603958897
 21
-2427.2884684232004
  0
ARC
  8
lay-2
 62
    2
 10
199.19578603958897
 20
-2427.2884684232004
 40
31.0
 50
180.0
 51
270.0
  0
LINE
  8
lay-2
 62
    2
 10
78.195786039588995
 20
-2427.2884684232004
 11
78.195786039589009
 21
-2139.2884684232004
  0
ARC
  8
lay-2
 62
    2
 10
47.195786039588995
 20
-2427.2884684232004
 40
31.0
 50
270.0
 51
360.0
  0
LINE
  8
lay-2
 62
    2
 10
223.19578603958905
 20
-2448.2884684232004
 11
199.19578603958897
 21
-2448.2884684232004
  0
LINE
  8
lay-2
 62
    2
 10
199.19578603958897
 20
-2458.2884684232004
 11
223.19578603958905
 21
-2458.2884684232004
  0
LINE
  8
lay-2
 62
    2
 10
47.195786039588953
 20
-2448.2884684232004
 11
23.195786039589006
 21
-2448.2884684232004
  0
LINE
  8
lay-2
 62
    2
 10
23.195786039588992
 20
-2458.2884684232004
 11
47.195786039588995
 21
-2458.2884684232004
  0
ARC
  8
lay-2
 62
    2
 10
247.195786039589
 20
-2427.2884684232004
 40
21.0
 50
270.0
 51
360.0
  0
ARC
  8
lay-2
 62
    2
 10
299.19578603958905
 20
-2139.2884684232004
 40
21.0
 50
90.0
 51
180.0
  0
LINE
  8
lay-2
 62
    2
 10
299.19578603958905
 20
-2118.2884684232004
 11
347.19578603958905
 21
-2118.2884684232004
  0
ARC
  8
lay-2
 62
    2
 10
347.19578603958905
 20
-2139.2884684232004
 40
21.0
 50
0.0
 51
90.0
  0
ARC
  8
lay-2
 62
    2
 10
399.19578603958894
 20
-2427.2884684232004
 40
21.0
 50
180.0
 51
270.0
  0
LINE
  8
lay-2
 62
    2
 10
268.19578603958905
 20
-2139.2884684232004
 11
268.19578603958894
 21
-2427.2884684232004
  0
ARC
  8
lay-2
 62
    2
 10
299.19578603958905
 20
-2139.2884684232004
 40
31.0
 50
90.0
 51
180.0
  0
LINE
  8
lay-2
 62
    2
 10
347.19578603958905
 20
-2108.2884684232004
 11
299.19578603958905
 21
-2108.2884684232004
  0
LINE
  8
lay-2
 62
    2
 10
378.19578603958894
 20
-2427.2884684232004
 11
378.19578603958905
 21
-2139.2884684232004
  0
ARC
  8
lay-2
 62
    2
 10
347.19578603958905
 20
-2139.2884684232004
 40
31.0
 50
0.0
 51
90.0
  0
LINE
  8
lay-2
 62
    2
 10
368.19578603958905
 20
-2139.2884684232004
 11
368.19578603958894
 21
-2427.2884684232004
  0
ARC
  8
lay-2
 62
    2
 10
399.19578603958894
 20
-2427.2884684232004
 40
31.0
 50
180.0
 51
270.0
  0
LINE
  8
lay-2
 62
    2
 10
278.19578603958905
 20
-2427.2884684232004
 11
278.19578603958905
 21
-2139.2884684232004
  0
ARC
  8
lay-2
 62
    2
 10
247.19578603958902
 20
-2427.2884684232004
 40
31.0
 50
270.0
 51
360.0
  0
LINE
  8
lay-2
 62
    2
 10
423.19578603958905
 20
-2448.2884684232004
 11
399.19578603958894
 21
-2448.2884684232004
  0
LINE
  8
lay-2
 62
    2
 10
399.19578603958894
 20
-2458.2884684232004
 11
423.19578603958905
 21
-2458.2884684232004
  0
LINE
  8
lay-2
 62
    2
 10
247.19578603958897
 20
-2448.2884684232004
 11
223.19578603958902
 21
-2448.2884684232004
  0
LINE
  8
lay-2
 62
    2
 10
223.19578603958902
 20
-2458.2884684232004
 11
247.19578603958902
 21
-2458.2884684232004
  0
ARC
  8
lay-2
 62
    2
 10
447.19578603958894
 20
-2427.2884684232004
 40
21.0
 50
270.0
 51
360.0
  0
ARC
  8
lay-2
 62
    2
 10
499.19578603958905
 20
-2139.2884684232004
 40
21.0
 50
90.0
 51
180.0
  0
LINE
  8
lay-2
 62
    2
 10
499.19578603958905
 20
-2118.2884684232004
 11
547.19578603958905
 21
-2118.2884684232004
  0
ARC
  8
lay-2
 62
    2
 10
547.19578603958905
 20
-2139.2884684232004
 40
21.0
 50
0.0
 51
90.0
  0
ARC
  8
lay-2
 62
    2
 10
599.19578603958894
 20
-2427.2884684232004
 40
21.0
 50
180.0
 51
270.0
  0
LINE
  8
lay-2
 62
    2
 10
468.19578603958905
 20
-2139.2884684232004
 11
468.19578603958894
 21
-2427.2884684232004
  0
ARC
  8
lay-2
 62
    2
 10
499.19578603958905
 20
-2139.2884684232004
 40
31.0
 50
90.0
 51
180.0
  0
LINE
  8
lay-2
 62
    2
 10
547.19578603958905
 20
-2108.2884684232004
 11
499.19578603958905
 21
-2108.2884684232004
  0
LINE
  8
lay-2
 62
    2
 10
578.19578603958894
 20
-2427.2884684232004
 11
578.19578603958905
 21
-2139.2884684232004
  0
ARC
  8
lay-2
 62
    2
 10
547.19578603958905
 20
-2139.2884684232004
 40
31.0
 50
0.0
 51
90.0
  0
LINE
  8
lay-2
 62
    2
 10
568.19578603958905
 20
-2139.2884684232004
 11
568.19578603958894
 21
-2427.2884684232004
  0
ARC
  8
lay-2
 62
    2
 10
599.19578603958894
 20
-2427.2884684232004
 40
31.0
 50
180.0
 51
270.0
  0
LINE
  8
lay-2
 62
    2
 10
478.19578603958905
 20
-2427.2884684232004
 11
478.19578603958905
 21
-2139.2884684232004
  0
ARC
  8
lay-2
 62
    2
 10
447.195786039589
 20
-2427.2884684232004
 40
31.0
 50
270.0
 51
360.0
  0
LINE
  8
lay-2
 62
    2
 10
623.19578603958905
 20
-2448.2884684232004
 11
599.19578603958894
 21
-2448.2884684232004
  0
LINE
  8
lay-2
 62
    2
 10
599.19578603958894
 20
-2458.2884684232004
 11
623.19578603958905
 21
-2458.2884684232004
  0
LINE
  8
lay-2
 62
    2
 10
447.19578603958894
 20
-2448.2884684232004
 11
423.195786039589
 21
-2448.2884684232004
  0
LINE
  8
lay-2
 62
    2
 10
423.195786039589
 20
-2458.2884684232004
 11
447.195786039589
 21
-2458.2884684232004
  0
ARC
  8
lay-2
 62
    2
 10
647.19578603958894
 20
-2427.2884684232004
 40
21.0
 50
270.0
 51
360.0
  0
ARC
  8
lay-2
 62
    2
 10
699.19578603958905
 20
-2139.2884684232004
 40
21.0
 50
90.0
 51
180.0
  0
LINE
  8
lay-2
 62
    2
 10
699.19578603958905
 20
-2118.2884684232004
 11
747.19578603958905
 21
-2118.2884684232004
  0
ARC
  8
lay-2
 62
    2
 10
747.19578603958905
 20
-2139.2884684232004
 40
21.0
 50
0.0
 51
90.0
  0
ARC
  8
lay-2
 62
    2
 10
799.19578603958894
 20
-2427.2884684232004
 40
21.0
 50
180.0
 51
270.0
  0
LINE
  8
lay-2
 62
    2
 10
668.19578603958905
 20
-2139.2884684232004
 11
668.19578603958894
 21
-2427.2884684232004
  0
ARC
  8
lay-2
 62
    2
 10
699.19578603958905
 20
-2139.2884684232004
 40
31.0
 50
90.0
 51
180.0
  0
LINE
  8
lay-2
 62
    2
 10
747.19578603958905
 20
-2108.2884684232004
 11
699.19578603958905
 21
-2108.2884684232004
  0
LINE
  8
lay-2
 62
    2
 10
778.19578603958894
 20
-2427.2884684232004
 11
778.19578603958905
 21
-2139.2884684232004
  0
ARC
  8
lay-2
 62
    2
 10
747.19578603958905
 20
-2139.2884684232004
 40
31.0
 50
0.0
 51
90.0
  0
LINE
  8
lay-2
 62
    2
 10
768.19578603958905
 20
-2139.2884684232004
 11
768.19578603958894
 21
-2427.2884684232004
  0
ARC
  8
lay-2
 62
    2
 10
799.19578603958894
 20
-2427.2884684232004
 40
31.0
 50
180.0
 51
270.0
  0
LINE
  8
lay-2
 62
    2
 10
678.19578603958905
 20
-2427.2884684232004
 11
678.19578603958905
 21
-2139.2884684232004
  0
ARC
  8
lay-2
 62
    2
 10
647.19578603958905
 20
-2427.2884684232004
 40
31.0
 50
270.0
 51
360.0
  0
LINE
  8
lay-2
 62
    2
 10
823.19578603958905
 20
-2448.2884684232004
 11
799.19578603958894
 21
-2448.2884684232004
  0
LINE
  8
lay-2
 62
    2
 10
799.19578603958894
 20
-2458.2884684232004
 11
823.19578603958905
 21
-2458.2884684232004
  0
LINE
  8
lay-2
 62
    2
 10
647.19578603958894
 20
-2448.2884684232004
 11
623.19578603958905
 21
-2448.2884684232004
  0
LINE
  8
lay-2
 62
    2
 10
623.19578603958894
 20
-2458.2884684232004
 11
647.19578603958905
 21
-2458.2884684232004
  0
ARC
  8
lay-2
 62
    2
 10
847.19578603958905
 20
-2427.2884684232004
 40
21.0
 50
270.0
 51
360.0
  0
ARC
  8
lay-2
 62
    2
 10
899.19578603958905
 20
-2139.2884684232004
 40
21.0
 50
90.0
 51
180.0
  0
LINE
  8
lay-2
 62
    2
 10
899.19578603958905
 20
-2118.2884684232004
 11
947.19578603958905
 21
-2118.2884684232004
  0
ARC
  8
lay-2
 62
    2
 10
947.19578603958905
 20
-2139.2884684232004
 40
21.0
 50
0.0
 51
90.0
  0
ARC
  8
lay-2
 62
    2
 10
999.19578603958894
 20
-2427.2884684232004
 40
21.0
 50
180.0
 51
270.0
  0
LINE
  8
lay-2
 62
    2
 10
868.19578603958905
 20
-2139.2884684232004
 11
868.19578603958894
 21
-2427.2884684232004
  0
ARC
  8
lay-2
 62
    2
 10
899.19578603958905
 20
-2139.2884684232004
 40
31.0
 50
90.0
 51
180.0
  0
LINE
  8
lay-2
 62
    2
 10
947.19578603958905
 20
-2108.2884684232004
 11
899.19578603958905
 21
-2108.2884684232004
  0
LINE
  8
lay-2
 62
    2
 10
978.19578603958894
 20
-2427.2884684232004
 11
978.19578603958905
 21
-2139.2884684232004
  0
ARC
  8
lay-2
 62
    2
 10
947.19578603958905
 20
-2139.2884684232004
 40
31.0
 50
0.0
 51
90.0
  0
LINE
  8
lay-2
 62
    2
 10
968.19578603958905
 20
-2139.2884684232004
 11
968.19578603958894
 21
-2427.2884684232004
  0
ARC
  8
lay-2
 62
    2
 10
999.19578603958894
 20
-2427.2884684232004
 40
31.0
 50
180.0
 51
270.0
  0
LINE
  8
lay-2
 62
    2
 10
878.19578603958905
 20
-2427.2884684232004
 11
878.19578603958905
 21
-2139.2884684232004
  0
ARC
  8
lay-2
 62
    2
 10
847.19578603958905
 20
-2427.2884684232004
 40
31.0
 50
270.0
 51
360.0
  0
LINE
  8
lay-2
 62
    2
 10
1023.1957860395891
 20
-2448.2884684232004
 11
999.19578603958894
 21
-2448.2884684232004
  0
LINE
  8
lay-2
 62
    2
 10
999.19578603958894
 20
-2458.2884684232004
 11
1023.1957860395891
 21
-2458.2884684232004
  0
LINE
  8
lay-2
 62
    2
 10
847.19578603958894
 20
-2448.2884684232004
 11
823.19578603958905
 21
-2448.2884684232004
  0
LINE
  8
lay-2
 62
    2
 10
823.19578603958905
 20
-2458.2884684232004
 11
847.19578603958905
 21
-2458.2884684232004
  0
ARC
  8
lay-2
 62
    2
 10
1047.1957860395892
 20
-2427.2884684232004
 40
21.0
 50
270.0
 51
360.0
  0
ARC
  8
lay-2
 62
    2
 10
1099.1957860395892
 20
-2139.2884684232004
 40
21.0
 50
90.0
 51
180.0
  0
LINE
  8
lay-2
 62
    2
 10
1099.1957860395892
 20
-2118.2884684232004
 11
1147.1957860395892
 21
-2118.2884684232004
  0
ARC
  8
lay-2
 62
    2
 10
1147.1957860395892
 20
-2139.2884684232004
 40
21.0
 50
0.0
 51
90.0
  0
ARC
  8
lay-2
 62
    2
 10
1199.1957860395892
 20
-2427.2884684232004
 40
21.0
 50
180.0
 51
270.0
  0
LINE
  8
lay-2
 62
    2
 10
1068.1957860395892
 20
-2139.2884684232004
 11
1068.1957860395892
 21
-2427.2884684232004
  0
ARC
  8
lay-2
 62
    2
 10
1099.1957860395892
 20
-2139.2884684232004
 40
31.0
 50
90.0
 51
180.0
  0
LINE
  8
lay-2
 62
    2
 10
1147.1957860395892
 20
-2108.2884684232004
 11
1099.1957860395892
 21
-2108.2884684232004
  0
LINE
  8
lay-2
 62
    2
 10
1178.1957860395892
 20
-2427.2884684232004
 11
1178.1957860395892
 21
-2139.2884684232004
  0
ARC
  8
lay-2
 62
    2
 10
1147.1957860395892
 20
-2139.2884684232004
 40
31.0
 50
0.0
 51
90.0
  0
LINE
  8
lay-2
 62
    2
 10
1168.1957860395892
 20
-2139.2884684232004
 11
1168.1957860395892
 21
-2427.2884684232004
  0
ARC
  8
lay-2
 62
    2
 10
1199.1957860395892
 20
-2427.2884684232004
 40
31.0
 50
180.0
 51
270.0
  0
LINE
  8
lay-2
 62
    2
 10
1078.1957860395892
 20
-2427.2884684232004
 11
1078.1957860395892
 21
-2139.2884684232004
  0
ARC
  8
lay-2
 62
    2
 10
1047.1957860395892
 20
-2427.2884684232004
 40
31.0
 50
270.0
 51
360.0
  0
LINE
  8
lay-2
 62
    2
 10
1223.1957860395892
 20
-2448.2884684232004
 11
1199.1957860395892
 21
-2448.2884684232004
  0
LINE
  8
lay-2
 62
    2
 10
1199.1957860395892
 20
-2458.2884684232004
 11
1223.1957860395892
 21
-2458.2884684232004
  0
LINE
  8
lay-2
 62
    2
 10
1047.1957860395892
 20
-2448.2884684232004
 11
1023.1957860395891
 21
-2448.2884684232004
  0
LINE
  8
lay-2
 62
    2
 10
1023.1957860395891
 20
-2458.2884684232004
 11
1047.1957860395892
 21
-2458.2884684232004
  0
LINE
  8
lay-2
 62
    2
 10
23.195786039589052
 20
-2458.2884684232004
 11
-1.8042139604109462
 21
-2458.2884684232004
  0
LINE
  8
lay-2
 62
    2
 10
-1.8042139604109462
 20
-2458.2884684232004
 11
-1.8042139604109455
 21
-2448.2884684232004
  0
LINE
  8
lay-2
 62
    2
 10
-1.8042139604109466
 20
-2448.2884684232004
 11
23.195786039589052
 21
-2448.2884684232004
  0
LINE
  8
lay-2
 62
    2
 10
1223.1957860395892
 20
-2458.2884684231999
 11
1248.1957860395892
 21
-2458.2884684231999
  0
LINE
  8
lay-2
 62
    2
 10
1248.1957860395892
 20
-2458.2884684231999
 11
1248.1957860395892
 21
-2448.2884684231999
  0
LINE
  8
lay-2
 62
    2
 10
1248.1957860395892
 20
-2448.2884684231999
 11
1223.1957860395892
 21
-2448.2884684231999
  0
TEXT
  8
lay-6
 10
1562.2911376953125
 20
-2212.9892578125
 40
50.0
  1
L.S. 12 %%c 10 Lg. var.
 41
0.80000000000000004
  0
CIRCLE
  8
lay-2
 62
    2
 10
223.19578603958942
 20
-2445.2884684232004
 40
3.0
  0
CIRCLE
  8
lay-2
 62
    2
 10
23.195786039589422
 20
-2445.2884684232004
 40
3.0
  0
CIRCLE
  8
lay-2
 62
    2
 10
423.19578603958939
 20
-2445.2884684232004
 40
3.0
  0
CIRCLE
  8
lay-2
 62
    2
 10
623.19578603958939
 20
-2445.2884684232004
 40
3.0
  0
CIRCLE
  8
lay-2
 62
    2
 10
823.19578603958939
 20
-2445.2884684232004
 40
3.0
  0
CIRCLE
  8
lay-2
 62
    2
 10
1023.1957860395894
 20
-2445.2884684232004
 40
3.0
  0
CIRCLE
  8
lay-2
 62
    2
 10
1223.1957860395894
 20
-2445.2884684232004
 40
3.0
  0
LINE
  8
lay-2
 62
    2
 10
-446.80421396041106
 20
-2453.2884683995039
 11
-446.80421396041106
 21
-2113.2884683995039
  0
LINE
  8
lay-2
 62
    2
 10
-456.80421396041106
 20
-2113.2884683453267
 11
-456.80421396041106
 21
-2453.2884683453271
  0
LINE
  8
lay-2
 62
    2
 10
-456.80421396041106
 20
-2448.2884684232004
 11
-546.80421396041106
 21
-2448.2884684232004
  0
LINE
  8
lay-2
 62
    2
 10
-456.80421396041106
 20
-2442.2884684232004
 11
-546.80421396041106
 21
-2442.2884684232004
  0
ARC
  8
lay-2
 62
    2
 10
-451.80421396041106
 20
-2453.2884684232004
 40
5.0
 50
179.99999999999966
 51
360.0
  0
LINE
  8
lay-2
 62
    2
 10
-456.80421396041106
 20
-2124.2884684231999
 11
-546.80421396041106
 21
-2124.2884684231999
  0
LINE
  8
lay-2
 62
    2
 10
-456.80421396041106
 20
-2118.2884684231999
 11
-546.80421396041106
 21
-2118.2884684231999
  0
CIRCLE
  8
lay-2
 62
    2
 10
-451.80421396041106
 20
-2113.2884684231999
 40
5.0
  0
LINE
  8
lay-2
 62
    2
 10
-546.80421396041106
 20
-2453.2884683995039
 11
-546.80421396041106
 21
-2113.2884683995039
  0
LINE
  8
lay-2
 62
    2
 10
-556.80421396041106
 20
-2113.2884683453267
 11
-556.80421396041106
 21
-2453.2884683453271
  0
LINE
  8
lay-2
 62
    2
 10
-556.80421396041106
 20
-2448.2884684232004
 11
-646.80421396041106
 21
-2448.2884684232004
  0
LINE
  8
lay-2
 62
    2
 10
-556.80421396041106
 20
-2442.2884684232004
 11
-646.80421396041106
 21
-2442.2884684232004
  0
ARC
  8
lay-2
 62
    2
 10
-551.80421396041106
 20
-2453.2884684232004
 40
5.0
 50
179.99999999999966
 51
360.0
  0
LINE
  8
lay-2
 62
    2
 10
-556.80421396041106
 20
-2124.2884684231999
 11
-646.80421396041106
 21
-2124.2884684231999
  0
LINE
  8
lay-2
 62
    2
 10
-556.80421396041106
 20
-2118.2884684231999
 11
-646.80421396041106
 21
-2118.2884684231999
  0
CIRCLE
  8
lay-2
 62
    2
 10
-551.80421396041106
 20
-2113.2884684231999
 40
5.0
  0
LINE
  8
lay-2
 62
    2
 10
-646.80421396041106
 20
-2453.2884683995039
 11
-646.80421396041106
 21
-2113.2884683995039
  0
LINE
  8
lay-2
 62
    2
 10
-656.80421396041106
 20
-2113.2884683453267
 11
-656.80421396041106
 21
-2453.2884683453271
  0
LINE
  8
lay-2
 62
    2
 10
-656.80421396041106
 20
-2448.2884684232004
 11
-746.80421396041106
 21
-2448.2884684232004
  0
LINE
  8
lay-2
 62
    2
 10
-656.80421396041106
 20
-2442.2884684232004
 11
-746.80421396041106
 21
-2442.2884684232004
  0
ARC
  8
lay-2
 62
    2
 10
-651.80421396041106
 20
-2453.2884684232004
 40
5.0
 50
179.99999999999966
 51
360.0
  0
LINE
  8
lay-2
 62
    2
 10
-656.80421396041106
 20
-2124.2884684231999
 11
-746.80421396041106
 21
-2124.2884684231999
  0
LINE
  8
lay-2
 62
    2
 10
-656.80421396041106
 20
-2118.2884684231999
 11
-746.80421396041106
 21
-2118.2884684231999
  0
CIRCLE
  8
lay-2
 62
    2
 10
-651.80421396041106
 20
-2113.2884684231999
 40
5.0
  0
LINE
  8
lay-2
 62
    2
 10
-746.80421396041106
 20
-2453.2884683995039
 11
-746.80421396041106
 21
-2113.2884683995039
  0
LINE
  8
lay-2
 62
    2
 10
-756.80421396041106
 20
-2113.2884683453267
 11
-756.80421396041106
 21
-2453.2884683453271
  0
LINE
  8
lay-2
 62
    2
 10
-756.80421396041106
 20
-2448.2884684232004
 11
-846.80421396041106
 21
-2448.2884684232004
  0
LINE
  8
lay-2
 62
    2
 10
-756.80421396041106
 20
-2442.2884684232004
 11
-846.80421396041106
 21
-2442.2884684232004
  0
ARC
  8
lay-2
 62
    2
 10
-751.80421396041106
 20
-2453.2884684232004
 40
5.0
 50
179.99999999999966
 51
360.0
  0
LINE
  8
lay-2
 62
    2
 10
-756.80421396041106
 20
-2124.2884684231999
 11
-846.80421396041106
 21
-2124.2884684231999
  0
LINE
  8
lay-2
 62
    2
 10
-756.80421396041106
 20
-2118.2884684231999
 11
-846.80421396041106
 21
-2118.2884684231999
  0
CIRCLE
  8
lay-2
 62
    2
 10
-751.80421396041106
 20
-2113.2884684231999
 40
5.0
  0
LINE
  8
lay-2
 62
    2
 10
-846.80421396041106
 20
-2453.2884683995039
 11
-846.80421396041106
 21
-2113.2884683995039
  0
LINE
  8
lay-2
 62
    2
 10
-856.80421396041106
 20
-2113.2884683453267
 11
-856.80421396041106
 21
-2453.2884683453271
  0
LINE
  8
lay-2
 62
    2
 10
-856.80421396041106
 20
-2448.2884684232004
 11
-946.80421396041106
 21
-2448.2884684232004
  0
LINE
  8
lay-2
 62
    2
 10
-856.80421396041106
 20
-2442.2884684232004
 11
-946.80421396041106
 21
-2442.2884684232004
  0
ARC
  8
lay-2
 62
    2
 10
-851.80421396041106
 20
-2453.2884684232004
 40
5.0
 50
179.99999999999966
 51
360.0
  0
LINE
  8
lay-2
 62
    2
 10
-856.80421396041106
 20
-2124.2884684231999
 11
-946.80421396041106
 21
-2124.2884684231999
  0
LINE
  8
lay-2
 62
    2
 10
-856.80421396041106
 20
-2118.2884684231999
 11
-946.80421396041106
 21
-2118.2884684231999
  0
CIRCLE
  8
lay-2
 62
    2
 10
-851.80421396041106
 20
-2113.2884684231999
 40
5.0
  0
LINE
  8
lay-2
 62
    2
 10
-946.80421396041106
 20
-2453.2884683995039
 11
-946.80421396041106
 21
-2113.2884683995039
  0
LINE
  8
lay-2
 62
    2
 10
-956.80421396041106
 20
-2113.2884683453267
 11
-956.80421396041106
 21
-2453.2884683453271
  0
LINE
  8
lay-2
 62
    2
 10
-956.80421396041106
 20
-2448.2884684232004
 11
-1046.8042139604111
 21
-2448.2884684232004
  0
LINE
  8
lay-2
 62
    2
 10
-956.80421396041106
 20
-2442.2884684232004
 11
-1046.8042139604111
 21
-2442.2884684232004
  0
ARC
  8
lay-2
 62
    2
 10
-951.80421396041106
 20
-2453.2884684232004
 40
5.0
 50
179.99999999999966
 51
360.0
  0
LINE
  8
lay-2
 62
    2
 10
-956.80421396041106
 20
-2124.2884684231999
 11
-1046.8042139604111
 21
-2124.2884684231999
  0
LINE
  8
lay-2
 62
    2
 10
-956.80421396041106
 20
-2118.2884684231999
 11
-1046.8042139604111
 21
-2118.2884684231999
  0
CIRCLE
  8
lay-2
 62
    2
 10
-951.80421396041106
 20
-2113.2884684231999
 40
5.0
  0
LINE
  8
lay-2
 62
    2
 10
-1046.8042139604111
 20
-2453.2884683995039
 11
-1046.8042139604111
 21
-2113.2884683995039
  0
LINE
  8
lay-2
 62
    2
 10
-1056.8042139604111
 20
-2113.2884683453267
 11
-1056.8042139604111
 21
-2453.2884683453271
  0
LINE
  8
lay-2
 62
    2
 10
-1056.8042139604111
 20
-2448.2884684232004
 11
-1146.8042139604111
 21
-2448.2884684232004
  0
LINE
  8
lay-2
 62
    2
 10
-1056.8042139604111
 20
-2442.2884684232004
 11
-1146.8042139604111
 21
-2442.2884684232004
  0
ARC
  8
lay-2
 62
    2
 10
-1051.8042139604111
 20
-2453.2884684232004
 40
5.0
 50
179.99999999999966
 51
360.0
  0
LINE
  8
lay-2
 62
    2
 10
-1056.8042139604111
 20
-2124.2884684231999
 11
-1146.8042139604111
 21
-2124.2884684231999
  0
LINE
  8
lay-2
 62
    2
 10
-1056.8042139604111
 20
-2118.2884684231999
 11
-1146.8042139604111
 21
-2118.2884684231999
  0
CIRCLE
  8
lay-2
 62
    2
 10
-1051.8042139604111
 20
-2113.2884684231999
 40
5.0
  0
LINE
  8
lay-2
 62
    2
 10
-1146.8042139604111
 20
-2453.2884683995039
 11
-1146.8042139604111
 21
-2113.2884683995039
  0
LINE
  8
lay-2
 62
    2
 10
-1156.8042139604111
 20
-2113.2884683453267
 11
-1156.8042139604111
 21
-2453.2884683453271
  0
LINE
  8
lay-2
 62
    2
 10
-1156.8042139604111
 20
-2448.2884684232004
 11
-1246.8042139604111
 21
-2448.2884684232004
  0
LINE
  8
lay-2
 62
    2
 10
-1156.8042139604111
 20
-2442.2884684232004
 11
-1246.8042139604111
 21
-2442.2884684232004
  0
ARC
  8
lay-2
 62
    2
 10
-1151.8042139604111
 20
-2453.2884684232004
 40
5.0
 50
179.99999999999966
 51
360.0
  0
LINE
  8
lay-2
 62
    2
 10
-1156.8042139604111
 20
-2124.2884684231999
 11
-1246.8042139604111
 21
-2124.2884684231999
  0
LINE
  8
lay-2
 62
    2
 10
-1156.8042139604111
 20
-2118.2884684231999
 11
-1246.8042139604111
 21
-2118.2884684231999
  0
CIRCLE
  8
lay-2
 62
    2
 10
-1151.8042139604111
 20
-2113.2884684231999
 40
5.0
  0
LINE
  8
lay-2
 62
    2
 10
-1246.8042139604111
 20
-2453.2884683995039
 11
-1246.8042139604111
 21
-2113.2884683995039
  0
LINE
  8
lay-2
 62
    2
 10
-1256.8042139604111
 20
-2113.2884683453267
 11
-1256.8042139604111
 21
-2453.2884683453271
  0
LINE
  8
lay-2
 62
    2
 10
-1256.8042139604111
 20
-2448.2884684232004
 11
-1346.8042139604111
 21
-2448.2884684232004
  0
LINE
  8
lay-2
 62
    2
 10
-1256.8042139604111
 20
-2442.2884684232004
 11
-1346.8042139604111
 21
-2442.2884684232004
  0
ARC
  8
lay-2
 62
    2
 10
-1251.8042139604111
 20
-2453.2884684232004
 40
5.0
 50
179.99999999999966
 51
360.0
  0
LINE
  8
lay-2
 62
    2
 10
-1256.8042139604111
 20
-2124.2884684231999
 11
-1346.8042139604111
 21
-2124.2884684231999
  0
LINE
  8
lay-2
 62
    2
 10
-1256.8042139604111
 20
-2118.2884684231999
 11
-1346.8042139604111
 21
-2118.2884684231999
  0
CIRCLE
  8
lay-2
 62
    2
 10
-1251.8042139604111
 20
-2113.2884684231999
 40
5.0
  0
LINE
  8
lay-2
 62
    2
 10
-1346.8042139604111
 20
-2453.2884683995039
 11
-1346.8042139604111
 21
-2113.2884683995039
  0
LINE
  8
lay-2
 62
    2
 10
-1356.8042139604111
 20
-2113.2884683453267
 11
-1356.8042139604111
 21
-2453.2884683453271
  0
ARC
  8
lay-2
 62
    2
 10
-1351.8042139604111
 20
-2453.2884684232004
 40
5.0
 50
179.99999999999966
 51
360.0
  0
CIRCLE
  8
lay-2
 62
    2
 10
-1351.8042139604111
 20
-2113.2884684231999
 40
5.0
  0
LINE
  8
lay-2
 62
    2
 10
-1366.8042139604113
 20
-2118.2884684231999
 11
-1356.8042139604113
 21
-2118.2884684231999
  0
ENDSEC
  0
EOF
