  0
SECTION
  2
HEADER
  9
$EXTMIN
 10
-2341.0862519482339
 20
-3119.218017578125
  9
$EXTMAX
 10
2422.7649628857339
 20
-143.673828125
  9
$DIMASZ
 40
40.0
  9
$DIMTXT
 40
50.0
  0
ENDSEC
  0
SECTION
  2
TABLES
  0
TABLE
  2
LTYPE
 70
  126
  0
LTYPE
  2
CONTINUOUS
 70
   64
  3
Solid line
 72
   65
 73
    0
 40
0.0
  0
LTYPE
  2
HIDDEN
 70
   64
  3
_ _ _ _ _ _ _ _ _ _ _ _ _ _ _ _ _ _ _ _ _ _ _
 72
   65
 73
    2
 40
0.375
 49
0.25
 49
-0.125
  0
LTYPE
  2
CENTER
 70
   64
  3
____ _ ____ _ ____ _ ____ _ ____ _ ____ _ ____
 72
   65
 73
    4
 40
2.0
 49
1.25
 49
-0.25
 49
0.25
 49
-0.25
  0
LTYPE
  2
DASHED
 70
   64
  3
__ __ __ __ __ __ __ __ __ __ __ __ __ __ __
 72
   65
 73
    2
 40
1.5
 49
1.25
 49
-0.25
  0
LTYPE
  2
LT-7
 70
   64
  3
METlt
 72
   65
 73
    6
 40
7.9199998453259468
 49
3.5999999195337296
 49
-1.1999999731779099
 49
0.36000000312924385
 49
-1.1999999731779099
 49
0.36000000312924385
 49
-1.1999999731779099
  0
LTYPE
  2
LT-8
 70
   64
  3
METlt
 72
   65
 73
    4
 40
6.3599998690187931
 49
3.5999999195337296
 49
-1.1999999731779099
 49
0.36000000312924385
 49
-1.1999999731779099
  0
LTYPE
  2
LT-9
 70
   64
  3
METlt
 72
   65
 73
    4
 40
6.3599998690187931
 49
3.5999999195337296
 49
-1.1999999731779099
 49
0.36000000312924385
 49
-1.1999999731779099
  0
LTYPE
  2
LT-10
 70
   64
  3
METlt
 72
   65
 73
    2
 40
5.9999998658895493
 49
3.5999999195337296
 49
-2.3999999463558197
  0
LTYPE
  2
LT-11
 70
   64
  3
METlt
 72
   65
 73
    6
 40
11.159999761730433
 49
3.5999999195337296
 49
-1.1999999731779099
 49
3.5999999195337296
 49
-1.1999999731779099
 49
0.36000000312924385
 49
-1.1999999731779099
  0
LTYPE
  2
LT-12
 70
   64
  3
METlt
 72
   65
 73
    4
 40
3.2399999443441629
 49
1.7999999597668648
 49
-0.59999998658895493
 49
0.24000001139938831
 49
-0.59999998658895493
  0
ENDTAB
  0
TABLE
  2
LAYER
 70
    4
  0
LAYER
  2
lay-0
 70
    0
 62
    7
  6
CONTINUOUS
  0
LAYER
  2
lay-2
 70
    0
 62
    7
  6
CONTINUOUS
  0
LAYER
  2
lay-5
 70
    0
 62
    7
  6
CONTINUOUS
  0
LAYER
  2
lay-6
 70
    0
 62
    7
  6
CONTINUOUS
  0
ENDTAB
  0
TABLE
  2
STYLE
 70
  256
  0
STYLE
  2
STANDARD
 70
   64
 40
0.0
 41
1.0
 50
0.0
 71
    0
 42
20.0
  3
TXT
  4

  0
ENDTAB
  0
ENDSEC
  0
SECTION
  2
BLOCKS
  0
BLOCK
  8
lay-0
  2
*idi270
 70
    1
 10
0.0
 20
0.0
  0
LINE
  8
lay-5
 10
-1.8042140007019043
 20
-1858.2884521484375
 11
-1.8042140007019043
 21
-1969.488037109375
  0
LINE
  8
lay-5
 10
1048.19580078125
 20
-1858.2884521484375
 11
1048.19580078125
 21
-1969.488037109375
  0
LINE
  8
lay-5
 10
-1.8042140007019043
 20
-1958.77001953125
 11
1048.19580078125
 21
-1958.77001953125
  0
LINE
  8
lay-5
 10
38.195785999298096
 20
-1964.0361194347458
 11
-1.8042140007019043
 21
-1958.77001953125
  0
LINE
  8
lay-5
 10
-1.8042140007019043
 20
-1958.77001953125
 11
38.195785999298096
 21
-1953.5039196277542
  0
LINE
  8
lay-5
 10
38.195785999298096
 20
-1953.5039196277542
 11
38.195785999298096
 21
-1964.0361194347458
  0
LINE
  8
lay-5
 10
1008.19580078125
 20
-1953.5039196277542
 11
1048.19580078125
 21
-1958.77001953125
  0
LINE
  8
lay-5
 10
1048.19580078125
 20
-1958.77001953125
 11
1008.19580078125
 21
-1964.0361194347458
  0
LINE
  8
lay-5
 10
1008.19580078125
 20
-1964.0361194347458
 11
1008.19580078125
 21
-1953.5039196277542
  0
TEXT
  8
lay-5
 10
435.69580078125
 20
-1933.77001953125
 40
50.0
  1
1050
 41
1.05
  0
ENDBLK
  8
lay-0
  0
BLOCK
  8
lay-0
  2
*idi300
 70
    1
 10
0.0
 20
0.0
  0
LINE
  8
lay-5
 10
-1201.80419921875
 20
-1842.2884521484375
 11
-1201.80419921875
 21
-1357.4127197265625
  0
LINE
  8
lay-5
 10
-1151.80419921875
 20
-1513.2884521484375
 11
-1151.80419921875
 21
-1357.4127197265625
  0
LINE
  8
lay-5
 10
-1201.80419921875
 20
-1368.1307373046875
 11
-1151.80419921875
 21
-1368.1307373046875
  0
LINE
  8
lay-5
 10
-1161.80419921875
 20
-1373.3968372081833
 11
-1201.80419921875
 21
-1368.1307373046875
  0
LINE
  8
lay-5
 10
-1201.80419921875
 20
-1368.1307373046875
 11
-1161.80419921875
 21
-1362.8646374011917
  0
LINE
  8
lay-5
 10
-1161.80419921875
 20
-1362.8646374011917
 11
-1161.80419921875
 21
-1373.3968372081833
  0
LINE
  8
lay-5
 10
-1191.80419921875
 20
-1362.8646374011917
 11
-1151.80419921875
 21
-1368.1307373046875
  0
LINE
  8
lay-5
 10
-1151.80419921875
 20
-1368.1307373046875
 11
-1191.80419921875
 21
-1373.3968372081833
  0
LINE
  8
lay-5
 10
-1191.80419921875
 20
-1373.3968372081833
 11
-1191.80419921875
 21
-1362.8646374011917
  0
TEXT
  8
lay-5
 10
-1220.55419921875
 20
-1343.1307373046875
 40
50.0
  1
50
 41
1.05
  0
ENDBLK
  8
lay-0
  0
BLOCK
  8
lay-0
  2
*idi260
 70
    1
 10
0.0
 20
0.0
  0
LINE
  8
lay-5
 10
947.19580078125
 20
-1508.2884521484375
 11
1408.4237060546875
 21
-1508.2884521484375
  0
LINE
  8
lay-5
 10
1048.19580078125
 20
-1858.2884521484375
 11
1408.4237060546875
 21
-1858.2884521484375
  0
LINE
  8
lay-5
 10
1397.7056884765625
 20
-1508.2884521484375
 11
1397.7056884765625
 21
-1858.2884521484375
  0
LINE
  8
lay-5
 10
1392.4395885730667
 20
-1548.2884521484375
 11
1397.7056884765625
 21
-1508.2884521484375
  0
LINE
  8
lay-5
 10
1397.7056884765625
 20
-1508.2884521484375
 11
1402.9717883800583
 21
-1548.2884521484375
  0
LINE
  8
lay-5
 10
1402.9717883800583
 20
-1548.2884521484375
 11
1392.4395885730667
 21
-1548.2884521484375
  0
LINE
  8
lay-5
 10
1402.9717883800583
 20
-1818.2884521484375
 11
1397.7056884765625
 21
-1858.2884521484375
  0
LINE
  8
lay-5
 10
1397.7056884765625
 20
-1858.2884521484375
 11
1392.4395885730667
 21
-1818.2884521484375
  0
LINE
  8
lay-5
 10
1392.4395885730667
 20
-1818.2884521484375
 11
1402.9717883800583
 21
-1818.2884521484375
  0
TEXT
  8
lay-5
 10
1503.9361572265625
 20
-1867.3548583984375
 40
50.0
  1
120-1000
 50
90.0
 41
1.05
  0
ENDBLK
  8
lay-0
  0
BLOCK
  8
lay-0
  2
*idi275
 70
    1
 10
0.0
 20
0.0
  0
LINE
  8
lay-5
 10
-251.80421447753906
 20
-1513.2884521484375
 11
-251.80421447753906
 21
-1357.4127197265625
  0
LINE
  8
lay-5
 10
-201.80421447753906
 20
-1518.2884521484375
 11
-201.80421447753906
 21
-1357.4127197265625
  0
LINE
  8
lay-5
 10
-251.80421447753906
 20
-1368.1307373046875
 11
-201.80421447753906
 21
-1368.1307373046875
  0
LINE
  8
lay-5
 10
-211.80421447753906
 20
-1373.3968372081833
 11
-251.80421447753906
 21
-1368.1307373046875
  0
LINE
  8
lay-5
 10
-251.80421447753906
 20
-1368.1307373046875
 11
-211.80421447753906
 21
-1362.8646374011917
  0
LINE
  8
lay-5
 10
-211.80421447753906
 20
-1362.8646374011917
 11
-211.80421447753906
 21
-1373.3968372081833
  0
LINE
  8
lay-5
 10
-241.80421447753906
 20
-1362.8646374011917
 11
-201.80421447753906
 21
-1368.1307373046875
  0
LINE
  8
lay-5
 10
-201.80421447753906
 20
-1368.1307373046875
 11
-241.80421447753906
 21
-1373.3968372081833
  0
LINE
  8
lay-5
 10
-241.80421447753906
 20
-1373.3968372081833
 11
-241.80421447753906
 21
-1362.8646374011917
  0
TEXT
  8
lay-5
 10
-270.55419921875
 20
-1343.1307373046875
 40
50.0
  1
50
 41
1.05
  0
ENDBLK
  8
lay-0
  0
BLOCK
  8
lay-0
  2
*idi280
 70
    1
 10
0.0
 20
0.0
  0
LINE
  8
lay-5
 10
973.19580078125
 20
-1539.2884521484375
 11
973.19580078125
 21
-1357.01611328125
  0
LINE
  8
lay-5
 10
1048.19580078125
 20
-1848.2884521484375
 11
1048.19580078125
 21
-1357.01611328125
  0
LINE
  8
lay-5
 10
973.19580078125
 20
-1367.734130859375
 11
1048.19580078125
 21
-1367.734130859375
  0
LINE
  8
lay-5
 10
1013.19580078125
 20
-1373.0002307628708
 11
973.19580078125
 21
-1367.734130859375
  0
LINE
  8
lay-5
 10
973.19580078125
 20
-1367.734130859375
 11
1013.19580078125
 21
-1362.4680309558792
  0
LINE
  8
lay-5
 10
1013.19580078125
 20
-1362.4680309558792
 11
1013.19580078125
 21
-1373.0002307628708
  0
LINE
  8
lay-5
 10
1008.19580078125
 20
-1362.4680309558792
 11
1048.19580078125
 21
-1367.734130859375
  0
LINE
  8
lay-5
 10
1048.19580078125
 20
-1367.734130859375
 11
1008.19580078125
 21
-1373.0002307628708
  0
LINE
  8
lay-5
 10
1008.19580078125
 20
-1373.0002307628708
 11
1008.19580078125
 21
-1362.4680309558792
  0
TEXT
  8
lay-5
 10
966.94580078125
 20
-1342.734130859375
 40
50.0
  1
75
 41
1.05
  0
ENDBLK
  8
lay-0
  0
BLOCK
  8
lay-0
  2
*idi285
 70
    1
 10
0.0
 20
0.0
  0
LINE
  8
lay-5
 10
73.195785522460938
 20
-1539.2884521484375
 11
73.195785522460938
 21
-1357.01611328125
  0
LINE
  8
lay-5
 10
973.19580078125
 20
-1539.2884521484375
 11
973.19580078125
 21
-1357.01611328125
  0
LINE
  8
lay-5
 10
73.195785522460938
 20
-1367.734130859375
 11
973.19580078125
 21
-1367.734130859375
  0
LINE
  8
lay-5
 10
113.19578552246094
 20
-1373.0002307628708
 11
73.195785522460938
 21
-1367.734130859375
  0
LINE
  8
lay-5
 10
73.195785522460938
 20
-1367.734130859375
 11
113.19578552246094
 21
-1362.4680309558792
  0
LINE
  8
lay-5
 10
113.19578552246094
 20
-1362.4680309558792
 11
113.19578552246094
 21
-1373.0002307628708
  0
LINE
  8
lay-5
 10
933.19580078125
 20
-1362.4680309558792
 11
973.19580078125
 21
-1367.734130859375
  0
LINE
  8
lay-5
 10
973.19580078125
 20
-1367.734130859375
 11
933.19580078125
 21
-1373.0002307628708
  0
LINE
  8
lay-5
 10
933.19580078125
 20
-1373.0002307628708
 11
933.19580078125
 21
-1362.4680309558792
  0
TEXT
  8
lay-5
 10
453.19580078125
 20
-1342.734130859375
 40
50.0
  1
900
 41
1.05
  0
ENDBLK
  8
lay-0
  0
BLOCK
  8
lay-0
  2
*idi290
 70
    1
 10
0.0
 20
0.0
  0
LINE
  8
lay-5
 10
-1151.80419921875
 20
-1513.2884521484375
 11
-1151.80419921875
 21
-1357.4127197265625
  0
LINE
  8
lay-5
 10
-251.80421447753906
 20
-1513.2884521484375
 11
-251.80421447753906
 21
-1357.4127197265625
  0
LINE
  8
lay-5
 10
-1151.80419921875
 20
-1368.1307373046875
 11
-251.80421447753906
 21
-1368.1307373046875
  0
LINE
  8
lay-5
 10
-1111.80419921875
 20
-1373.3968372081833
 11
-1151.80419921875
 21
-1368.1307373046875
  0
LINE
  8
lay-5
 10
-1151.80419921875
 20
-1368.1307373046875
 11
-1111.80419921875
 21
-1362.8646374011917
  0
LINE
  8
lay-5
 10
-1111.80419921875
 20
-1362.8646374011917
 11
-1111.80419921875
 21
-1373.3968372081833
  0
LINE
  8
lay-5
 10
-291.80421447753906
 20
-1362.8646374011917
 11
-251.80421447753906
 21
-1368.1307373046875
  0
LINE
  8
lay-5
 10
-251.80421447753906
 20
-1368.1307373046875
 11
-291.80421447753906
 21
-1373.3968372081833
  0
LINE
  8
lay-5
 10
-291.80421447753906
 20
-1373.3968372081833
 11
-291.80421447753906
 21
-1362.8646374011917
  0
TEXT
  8
lay-5
 10
-771.80419921875
 20
-1343.1307373046875
 40
50.0
  1
900
 41
1.05
  0
ENDBLK
  8
lay-0
  0
BLOCK
  8
lay-0
  2
*idi295
 70
    1
 10
0.0
 20
0.0
  0
LINE
  8
lay-5
 10
-1.8042140007019043
 20
-1848.2884521484375
 11
-1.8042140007019043
 21
-1357.01611328125
  0
LINE
  8
lay-5
 10
73.195785522460938
 20
-1539.2884521484375
 11
73.195785522460938
 21
-1357.01611328125
  0
LINE
  8
lay-5
 10
-1.8042140007019043
 20
-1367.734130859375
 11
73.195785522460938
 21
-1367.734130859375
  0
LINE
  8
lay-5
 10
38.195785999298096
 20
-1373.0002307628708
 11
-1.8042140007019043
 21
-1367.734130859375
  0
LINE
  8
lay-5
 10
-1.8042140007019043
 20
-1367.734130859375
 11
38.195785999298096
 21
-1362.4680309558792
  0
LINE
  8
lay-5
 10
38.195785999298096
 20
-1362.4680309558792
 11
38.195785999298096
 21
-1373.0002307628708
  0
LINE
  8
lay-5
 10
33.195785522460937
 20
-1362.4680309558792
 11
73.195785522460938
 21
-1367.734130859375
  0
LINE
  8
lay-5
 10
73.195785522460938
 20
-1367.734130859375
 11
33.195785522460937
 21
-1373.0002307628708
  0
LINE
  8
lay-5
 10
33.195785522460937
 20
-1373.0002307628708
 11
33.195785522460937
 21
-1362.4680309558792
  0
TEXT
  8
lay-5
 10
-8.0542135238647461
 20
-1342.734130859375
 40
50.0
  1
75
 41
1.05
  0
ENDBLK
  8
lay-0
  0
BLOCK
  8
lay-0
  2
*idi307
 70
    1
 10
0.0
 20
0.0
  0
LINE
  8
lay-5
 10
-1201.80419921875
 20
-1848.2884521484375
 11
-1201.80419921875
 21
-1970.1575927734375
  0
LINE
  8
lay-5
 10
-201.80421447753906
 20
-1848.2884521484375
 11
-201.80421447753906
 21
-1970.1575927734375
  0
LINE
  8
lay-5
 10
-1201.80419921875
 20
-1959.4395751953125
 11
-201.80421447753906
 21
-1959.4395751953125
  0
LINE
  8
lay-5
 10
-1161.80419921875
 20
-1964.7056750988083
 11
-1201.80419921875
 21
-1959.4395751953125
  0
LINE
  8
lay-5
 10
-1201.80419921875
 20
-1959.4395751953125
 11
-1161.80419921875
 21
-1954.1734752918167
  0
LINE
  8
lay-5
 10
-1161.80419921875
 20
-1954.1734752918167
 11
-1161.80419921875
 21
-1964.7056750988083
  0
LINE
  8
lay-5
 10
-241.80421447753906
 20
-1954.1734752918167
 11
-201.80421447753906
 21
-1959.4395751953125
  0
LINE
  8
lay-5
 10
-201.80421447753906
 20
-1959.4395751953125
 11
-241.80421447753906
 21
-1964.7056750988083
  0
LINE
  8
lay-5
 10
-241.80421447753906
 20
-1964.7056750988083
 11
-241.80421447753906
 21
-1954.1734752918167
  0
TEXT
  8
lay-5
 10
-789.30419921875
 20
-1934.4395751953125
 40
50.0
  1
1000
 41
1.05
  0
ENDBLK
  8
lay-0
  0
ENDSEC
  0
SECTION
  2
ENTITIES
  0
DIMENSION
  8
lay-5
  2
*idi270
 10
1048.19580078125
 20
-1958.77001953125
 11
523.19580078125
 21
-1908.77001953125
 13
-1.8042139604108542
 23
-1858.2884684232001
 14
1048.1957860395894
 24
-1858.2884684231999
  0
LINE
  8
lay-2
 62
    2
 10
-1201.8042139604111
 20
-1842.2884684231999
 11
-1201.8042139604111
 21
-1848.2884684231999
  0
DIMENSION
  8
lay-5
  2
*idi300
 10
-1151.80419921875
 20
-1368.1307373046875
 11
-1176.80419921875
 21
-1318.1307373046875
 13
-1201.8042139604111
 23
-1842.2884684231999
 14
-1151.8042139604108
 24
-1513.2884684231999
  0
TEXT
  8
lay-6
 10
-2215.4111328125
 20
-1731.3897705078125
 40
75.0
  1
FIDECA Typ 10
 41
0.80000000000000004
  0
DIMENSION
  8
lay-5
  2
*idi260
 10
1397.7056884765625
 20
-1858.2884521484375
 11
1478.9361572265625
 21
-1683.6048583984375
  1
120-1000
 13
947.19578603958917
 23
-1508.2884684232001
 14
1048.1957860395894
 24
-1858.2884684231999
 50
90.0
  0
DIMENSION
  8
lay-5
  2
*idi275
 10
-201.80421447753906
 20
-1368.1307373046875
 11
-226.80420684814453
 21
-1318.1307373046875
 13
-251.80421396041095
 23
-1513.2884684231999
 14
-201.804213960411
 24
-1518.2884684231999
  0
DIMENSION
  8
lay-5
  2
*idi280
 10
1048.19580078125
 20
-1367.734130859375
 11
1010.69580078125
 21
-1317.734130859375
 13
973.19578603958917
 23
-1539.2884684231999
 14
1048.1957860395894
 24
-1848.2884684231999
  0
DIMENSION
  8
lay-5
  2
*idi285
 10
973.19580078125
 20
-1367.734130859375
 11
523.19580078125
 21
-1317.734130859375
 13
73.195786039589109
 23
-1539.2884684231999
 14
973.19578603958917
 24
-1539.2884684231999
  0
DIMENSION
  8
lay-5
  2
*idi290
 10
-251.80421447753906
 20
-1368.1307373046875
 11
-701.80419921875
 21
-1318.1307373046875
 13
-1151.8042139604108
 23
-1513.2884684231999
 14
-251.80421396041095
 24
-1513.2884684231999
  0
LINE
  8
lay-5
 62
    6
 10
68.195786039589109
 20
-1539.2884684231999
 11
73.195786039589109
 21
-1539.2884684231999
  0
LINE
  8
lay-5
 62
    6
 10
978.19578603958917
 20
-1539.2884684231999
 11
973.19578603958917
 21
-1539.2884684231999
  0
DIMENSION
  8
lay-5
  2
*idi295
 10
73.195785522460938
 20
-1367.734130859375
 11
35.695785999298096
 21
-1317.734130859375
 13
-1.8042139604108547
 23
-1848.2884684232001
 14
73.195786039589109
 24
-1539.2884684231999
  0
LINE
  8
lay-2
 62
    2
 10
-1156.8042139604111
 20
-1842.2884684231999
 11
-1201.8042139604111
 21
-1842.2884684231999
  0
LINE
  8
lay-2
 62
    2
 10
-1201.8042139604111
 20
-1848.2884684231999
 11
-1156.8042139604111
 21
-1848.2884684231999
  0
LINE
  8
lay-2
 62
    2
 10
-246.804213960411
 20
-1842.2884684231999
 11
-201.804213960411
 21
-1842.2884684231999
  0
LINE
  8
lay-2
 62
    2
 10
-201.804213960411
 20
-1842.2884684231999
 11
-201.804213960411
 21
-1848.2884684231999
  0
LINE
  8
lay-2
 62
    2
 10
-201.804213960411
 20
-1848.2884684231999
 11
-246.804213960411
 21
-1848.2884684231999
  0
DIMENSION
  8
lay-5
  2
*idi307
 10
-201.80421447753906
 20
-1959.4395751953125
 11
-701.80419921875
 21
-1909.4395751953125
 13
-1201.8042139604111
 23
-1848.2884684231999
 14
-201.804213960411
 24
-1848.2884684231999
  0
TEXT
  8
lay-6
 10
1562.2911376953125
 20
-1611.448486328125
 40
50.0
  1
L.S. 10 %%c 10 Lg. var.
 41
0.80000000000000004
  0
LINE
  8
lay-2
 62
    2
 10
-246.804213960411
 20
-1518.2884684231999
 11
-201.804213960411
 21
-1518.2884684231999
  0
LINE
  8
lay-2
 62
    2
 10
-201.804213960411
 20
-1518.2884684231999
 11
-201.804213960411
 21
-1524.2884684231999
  0
CIRCLE
  8
lay-2
 62
    2
 10
123.19578603958919
 20
-1521.2884684231999
 40
3.0
  0
LINE
  8
lay-2
 62
    2
 10
-201.804213960411
 20
-1524.2884684231999
 11
-246.804213960411
 21
-1524.2884684231999
  0
CIRCLE
  8
lay-2
 62
    2
 10
323.19578603958917
 20
-1521.2884684231999
 40
3.0
  0
LINE
  8
lay-2
 62
    2
 10
-246.80421396041095
 20
-1853.2884683995039
 11
-246.80421396041095
 21
-1513.2884683995039
  0
LINE
  8
lay-2
 62
    2
 10
-256.80421396041095
 20
-1513.2884683453269
 11
-256.80421396041095
 21
-1853.2884683453271
  0
LINE
  8
lay-2
 62
    2
 10
-236.80421396041095
 20
-1842.2884684232001
 11
-246.80421396041095
 21
-1842.2884684232001
  0
LINE
  8
lay-2
 62
    2
 10
-246.80421396041095
 20
-1848.2884684232001
 11
-236.80421396041095
 21
-1848.2884684232001
  0
LINE
  8
lay-2
 62
    2
 10
-256.80421396041095
 20
-1848.2884684232001
 11
-346.80421396041095
 21
-1848.2884684232001
  0
LINE
  8
lay-2
 62
    2
 10
-256.80421396041095
 20
-1842.2884684232001
 11
-346.80421396041095
 21
-1842.2884684232001
  0
ARC
  8
lay-2
 62
    2
 10
-251.80421396041095
 20
-1853.2884684232001
 40
5.0
 50
179.99999999999966
 51
360.0
  0
LINE
  8
lay-2
 62
    2
 10
-236.80421396041095
 20
-1518.2884684231999
 11
-246.80421396041095
 21
-1518.2884684231999
  0
LINE
  8
lay-2
 62
    2
 10
-256.80421396041095
 20
-1524.2884684231999
 11
-346.80421396041095
 21
-1524.2884684231999
  0
LINE
  8
lay-2
 62
    2
 10
-256.80421396041095
 20
-1518.2884684231999
 11
-346.80421396041095
 21
-1518.2884684231999
  0
CIRCLE
  8
lay-2
 62
    2
 10
-251.80421396041095
 20
-1513.2884684231999
 40
5.0
  0
CIRCLE
  8
lay-2
 62
    2
 10
523.19578603958917
 20
-1521.2884684231999
 40
3.0
  0
CIRCLE
  8
lay-2
 62
    2
 10
723.19578603958917
 20
-1521.2884684231999
 40
3.0
  0
CIRCLE
  8
lay-2
 62
    2
 10
923.19578603958917
 20
-1521.2884684231999
 40
3.0
  0
LINE
  8
lay-2
 62
    2
 10
-1156.8042139604111
 20
-1518.2884684231999
 11
-1201.8042139604111
 21
-1518.2884684231999
  0
LINE
  8
lay-2
 62
    2
 10
-1201.8042139604111
 20
-1518.2884684231999
 11
-1201.8042139604111
 21
-1524.2884684231999
  0
LINE
  8
lay-2
 62
    2
 10
-1201.8042139604111
 20
-1524.2884684231999
 11
-1156.8042139604111
 21
-1524.2884684231999
  0
ARC
  8
lay-2
 62
    2
 10
47.195786039589073
 20
-1827.2884684232001
 40
21.0
 50
270.0
 51
360.0
  0
ARC
  8
lay-2
 62
    2
 10
99.195786039589123
 20
-1539.2884684232001
 40
21.0
 50
90.0
 51
180.0
  0
LINE
  8
lay-2
 62
    2
 10
99.195786039589123
 20
-1518.2884684232001
 11
147.19578603958914
 21
-1518.2884684232001
  0
ARC
  8
lay-2
 62
    2
 10
147.19578603958914
 20
-1539.2884684232001
 40
21.0
 50
0.0
 51
90.0
  0
ARC
  8
lay-2
 62
    2
 10
199.19578603958908
 20
-1827.2884684232001
 40
21.0
 50
180.0
 51
270.0
  0
LINE
  8
lay-2
 62
    2
 10
68.195786039589109
 20
-1539.2884684232001
 11
68.195786039589066
 21
-1827.2884684232001
  0
ARC
  8
lay-2
 62
    2
 10
99.195786039589109
 20
-1539.2884684232001
 40
31.0
 50
90.0
 51
180.0
  0
LINE
  8
lay-2
 62
    2
 10
147.19578603958911
 20
-1508.2884684232001
 11
99.195786039589109
 21
-1508.2884684232001
  0
LINE
  8
lay-2
 62
    2
 10
178.19578603958908
 20
-1827.2884684232001
 11
178.19578603958911
 21
-1539.2884684232001
  0
ARC
  8
lay-2
 62
    2
 10
147.19578603958911
 20
-1539.2884684232001
 40
31.0
 50
0.0
 51
90.0
  0
LINE
  8
lay-2
 62
    2
 10
168.19578603958914
 20
-1539.2884684232001
 11
168.19578603958908
 21
-1827.2884684232001
  0
ARC
  8
lay-2
 62
    2
 10
199.19578603958908
 20
-1827.2884684232001
 40
31.0
 50
180.0
 51
270.0
  0
LINE
  8
lay-2
 62
    2
 10
78.195786039589109
 20
-1827.2884684232001
 11
78.195786039589123
 21
-1539.2884684232001
  0
ARC
  8
lay-2
 62
    2
 10
47.195786039589109
 20
-1827.2884684232001
 40
31.0
 50
270.0
 51
360.0
  0
LINE
  8
lay-2
 62
    2
 10
223.19578603958917
 20
-1848.2884684232001
 11
199.19578603958908
 21
-1848.2884684232001
  0
LINE
  8
lay-2
 62
    2
 10
199.19578603958908
 20
-1858.2884684232001
 11
223.19578603958917
 21
-1858.2884684232001
  0
LINE
  8
lay-2
 62
    2
 10
47.195786039589066
 20
-1848.2884684232001
 11
23.19578603958912
 21
-1848.2884684232001
  0
LINE
  8
lay-2
 62
    2
 10
23.195786039589105
 20
-1858.2884684232001
 11
47.195786039589109
 21
-1858.2884684232001
  0
ARC
  8
lay-2
 62
    2
 10
247.19578603958911
 20
-1827.2884684232001
 40
21.0
 50
270.0
 51
360.0
  0
ARC
  8
lay-2
 62
    2
 10
299.19578603958917
 20
-1539.2884684232001
 40
21.0
 50
90.0
 51
180.0
  0
LINE
  8
lay-2
 62
    2
 10
299.19578603958917
 20
-1518.2884684232001
 11
347.19578603958917
 21
-1518.2884684232001
  0
ARC
  8
lay-2
 62
    2
 10
347.19578603958917
 20
-1539.2884684232001
 40
21.0
 50
0.0
 51
90.0
  0
ARC
  8
lay-2
 62
    2
 10
399.19578603958905
 20
-1827.2884684232001
 40
21.0
 50
180.0
 51
270.0
  0
LINE
  8
lay-2
 62
    2
 10
268.19578603958917
 20
-1539.2884684232001
 11
268.19578603958905
 21
-1827.2884684232001
  0
ARC
  8
lay-2
 62
    2
 10
299.19578603958917
 20
-1539.2884684232001
 40
31.0
 50
90.0
 51
180.0
  0
LINE
  8
lay-2
 62
    2
 10
347.19578603958917
 20
-1508.2884684232001
 11
299.19578603958917
 21
-1508.2884684232001
  0
LINE
  8
lay-2
 62
    2
 10
378.19578603958905
 20
-1827.2884684232001
 11
378.19578603958917
 21
-1539.2884684232001
  0
ARC
  8
lay-2
 62
    2
 10
347.19578603958917
 20
-1539.2884684232001
 40
31.0
 50
0.0
 51
90.0
  0
LINE
  8
lay-2
 62
    2
 10
368.19578603958917
 20
-1539.2884684232001
 11
368.19578603958905
 21
-1827.2884684232001
  0
ARC
  8
lay-2
 62
    2
 10
399.19578603958905
 20
-1827.2884684232001
 40
31.0
 50
180.0
 51
270.0
  0
LINE
  8
lay-2
 62
    2
 10
278.19578603958917
 20
-1827.2884684232001
 11
278.19578603958917
 21
-1539.2884684232001
  0
ARC
  8
lay-2
 62
    2
 10
247.19578603958914
 20
-1827.2884684232001
 40
31.0
 50
270.0
 51
360.0
  0
LINE
  8
lay-2
 62
    2
 10
423.19578603958917
 20
-1848.2884684232001
 11
399.19578603958905
 21
-1848.2884684232001
  0
LINE
  8
lay-2
 62
    2
 10
399.19578603958905
 20
-1858.2884684232001
 11
423.19578603958917
 21
-1858.2884684232001
  0
LINE
  8
lay-2
 62
    2
 10
247.19578603958908
 20
-1848.2884684232001
 11
223.19578603958914
 21
-1848.2884684232001
  0
LINE
  8
lay-2
 62
    2
 10
223.19578603958914
 20
-1858.2884684232001
 11
247.19578603958914
 21
-1858.2884684232001
  0
ARC
  8
lay-2
 62
    2
 10
447.19578603958905
 20
-1827.2884684232001
 40
21.0
 50
270.0
 51
360.0
  0
ARC
  8
lay-2
 62
    2
 10
499.19578603958917
 20
-1539.2884684232001
 40
21.0
 50
90.0
 51
180.0
  0
LINE
  8
lay-2
 62
    2
 10
499.19578603958917
 20
-1518.2884684232001
 11
547.19578603958917
 21
-1518.2884684232001
  0
ARC
  8
lay-2
 62
    2
 10
547.19578603958917
 20
-1539.2884684232001
 40
21.0
 50
0.0
 51
90.0
  0
ARC
  8
lay-2
 62
    2
 10
599.19578603958905
 20
-1827.2884684232001
 40
21.0
 50
180.0
 51
270.0
  0
LINE
  8
lay-2
 62
    2
 10
468.19578603958917
 20
-1539.2884684232001
 11
468.19578603958905
 21
-1827.2884684232001
  0
ARC
  8
lay-2
 62
    2
 10
499.19578603958917
 20
-1539.2884684232001
 40
31.0
 50
90.0
 51
180.0
  0
LINE
  8
lay-2
 62
    2
 10
547.19578603958917
 20
-1508.2884684232001
 11
499.19578603958917
 21
-1508.2884684232001
  0
LINE
  8
lay-2
 62
    2
 10
578.19578603958905
 20
-1827.2884684232001
 11
578.19578603958917
 21
-1539.2884684232001
  0
ARC
  8
lay-2
 62
    2
 10
547.19578603958917
 20
-1539.2884684232001
 40
31.0
 50
0.0
 51
90.0
  0
LINE
  8
lay-2
 62
    2
 10
568.19578603958917
 20
-1539.2884684232001
 11
568.19578603958905
 21
-1827.2884684232001
  0
ARC
  8
lay-2
 62
    2
 10
599.19578603958905
 20
-1827.2884684232001
 40
31.0
 50
180.0
 51
270.0
  0
LINE
  8
lay-2
 62
    2
 10
478.19578603958917
 20
-1827.2884684232001
 11
478.19578603958917
 21
-1539.2884684232001
  0
ARC
  8
lay-2
 62
    2
 10
447.19578603958911
 20
-1827.2884684232001
 40
31.0
 50
270.0
 51
360.0
  0
LINE
  8
lay-2
 62
    2
 10
623.19578603958917
 20
-1848.2884684232001
 11
599.19578603958905
 21
-1848.2884684232001
  0
LINE
  8
lay-2
 62
    2
 10
599.19578603958905
 20
-1858.2884684232001
 11
623.19578603958917
 21
-1858.2884684232001
  0
LINE
  8
lay-2
 62
    2
 10
447.19578603958905
 20
-1848.2884684232001
 11
423.19578603958911
 21
-1848.2884684232001
  0
LINE
  8
lay-2
 62
    2
 10
423.19578603958911
 20
-1858.2884684232001
 11
447.19578603958911
 21
-1858.2884684232001
  0
ARC
  8
lay-2
 62
    2
 10
647.19578603958905
 20
-1827.2884684232001
 40
21.0
 50
270.0
 51
360.0
  0
ARC
  8
lay-2
 62
    2
 10
699.19578603958917
 20
-1539.2884684232001
 40
21.0
 50
90.0
 51
180.0
  0
LINE
  8
lay-2
 62
    2
 10
699.19578603958917
 20
-1518.2884684232001
 11
747.19578603958917
 21
-1518.2884684232001
  0
ARC
  8
lay-2
 62
    2
 10
747.19578603958917
 20
-1539.2884684232001
 40
21.0
 50
0.0
 51
90.0
  0
ARC
  8
lay-2
 62
    2
 10
799.19578603958905
 20
-1827.2884684232001
 40
21.0
 50
180.0
 51
270.0
  0
LINE
  8
lay-2
 62
    2
 10
668.19578603958917
 20
-1539.2884684232001
 11
668.19578603958905
 21
-1827.2884684232001
  0
ARC
  8
lay-2
 62
    2
 10
699.19578603958917
 20
-1539.2884684232001
 40
31.0
 50
90.0
 51
180.0
  0
LINE
  8
lay-2
 62
    2
 10
747.19578603958917
 20
-1508.2884684232001
 11
699.19578603958917
 21
-1508.2884684232001
  0
LINE
  8
lay-2
 62
    2
 10
778.19578603958905
 20
-1827.2884684232001
 11
778.19578603958917
 21
-1539.2884684232001
  0
ARC
  8
lay-2
 62
    2
 10
747.19578603958917
 20
-1539.2884684232001
 40
31.0
 50
0.0
 51
90.0
  0
LINE
  8
lay-2
 62
    2
 10
768.19578603958917
 20
-1539.2884684232001
 11
768.19578603958905
 21
-1827.2884684232001
  0
ARC
  8
lay-2
 62
    2
 10
799.19578603958905
 20
-1827.2884684232001
 40
31.0
 50
180.0
 51
270.0
  0
LINE
  8
lay-2
 62
    2
 10
678.19578603958917
 20
-1827.2884684232001
 11
678.19578603958917
 21
-1539.2884684232001
  0
ARC
  8
lay-2
 62
    2
 10
647.19578603958917
 20
-1827.2884684232001
 40
31.0
 50
270.0
 51
360.0
  0
LINE
  8
lay-2
 62
    2
 10
823.19578603958917
 20
-1848.2884684232001
 11
799.19578603958905
 21
-1848.2884684232001
  0
LINE
  8
lay-2
 62
    2
 10
799.19578603958905
 20
-1858.2884684232001
 11
823.19578603958917
 21
-1858.2884684232001
  0
LINE
  8
lay-2
 62
    2
 10
647.19578603958905
 20
-1848.2884684232001
 11
623.19578603958917
 21
-1848.2884684232001
  0
LINE
  8
lay-2
 62
    2
 10
623.19578603958905
 20
-1858.2884684232001
 11
647.19578603958917
 21
-1858.2884684232001
  0
ARC
  8
lay-2
 62
    2
 10
847.19578603958917
 20
-1827.2884684232001
 40
21.0
 50
270.0
 51
360.0
  0
ARC
  8
lay-2
 62
    2
 10
899.19578603958917
 20
-1539.2884684232001
 40
21.0
 50
90.0
 51
180.0
  0
LINE
  8
lay-2
 62
    2
 10
899.19578603958917
 20
-1518.2884684232001
 11
947.19578603958917
 21
-1518.2884684232001
  0
ARC
  8
lay-2
 62
    2
 10
947.19578603958917
 20
-1539.2884684232001
 40
21.0
 50
0.0
 51
90.0
  0
ARC
  8
lay-2
 62
    2
 10
999.19578603958905
 20
-1827.2884684232001
 40
21.0
 50
180.0
 51
270.0
  0
LINE
  8
lay-2
 62
    2
 10
868.19578603958917
 20
-1539.2884684232001
 11
868.19578603958905
 21
-1827.2884684232001
  0
ARC
  8
lay-2
 62
    2
 10
899.19578603958917
 20
-1539.2884684232001
 40
31.0
 50
90.0
 51
180.0
  0
LINE
  8
lay-2
 62
    2
 10
947.19578603958917
 20
-1508.2884684232001
 11
899.19578603958917
 21
-1508.2884684232001
  0
LINE
  8
lay-2
 62
    2
 10
978.19578603958905
 20
-1827.2884684232001
 11
978.19578603958917
 21
-1539.2884684232001
  0
ARC
  8
lay-2
 62
    2
 10
947.19578603958917
 20
-1539.2884684232001
 40
31.0
 50
0.0
 51
90.0
  0
LINE
  8
lay-2
 62
    2
 10
968.19578603958917
 20
-1539.2884684232001
 11
968.19578603958905
 21
-1827.2884684232001
  0
ARC
  8
lay-2
 62
    2
 10
999.19578603958905
 20
-1827.2884684232001
 40
31.0
 50
180.0
 51
270.0
  0
LINE
  8
lay-2
 62
    2
 10
878.19578603958917
 20
-1827.2884684232001
 11
878.19578603958917
 21
-1539.2884684232001
  0
ARC
  8
lay-2
 62
    2
 10
847.19578603958917
 20
-1827.2884684232001
 40
31.0
 50
270.0
 51
360.0
  0
LINE
  8
lay-2
 62
    2
 10
1023.1957860395892
 20
-1848.2884684232001
 11
999.19578603958905
 21
-1848.2884684232001
  0
LINE
  8
lay-2
 62
    2
 10
999.19578603958905
 20
-1858.2884684232001
 11
1023.1957860395892
 21
-1858.2884684232001
  0
LINE
  8
lay-2
 62
    2
 10
847.19578603958905
 20
-1848.2884684232001
 11
823.19578603958917
 21
-1848.2884684232001
  0
LINE
  8
lay-2
 62
    2
 10
823.19578603958917
 20
-1858.2884684232001
 11
847.19578603958917
 21
-1858.2884684232001
  0
LINE
  8
lay-2
 62
    2
 10
-346.80421396041095
 20
-1853.2884683995039
 11
-346.80421396041095
 21
-1513.2884683995039
  0
LINE
  8
lay-2
 62
    2
 10
-356.80421396041095
 20
-1513.2884683453269
 11
-356.80421396041095
 21
-1853.2884683453271
  0
LINE
  8
lay-2
 62
    2
 10
-356.80421396041095
 20
-1848.2884684232001
 11
-446.80421396041095
 21
-1848.2884684232001
  0
LINE
  8
lay-2
 62
    2
 10
-356.80421396041095
 20
-1842.2884684232001
 11
-446.80421396041095
 21
-1842.2884684232001
  0
ARC
  8
lay-2
 62
    2
 10
-351.80421396041095
 20
-1853.2884684232001
 40
5.0
 50
179.99999999999966
 51
360.0
  0
LINE
  8
lay-2
 62
    2
 10
-356.80421396041095
 20
-1524.2884684231999
 11
-446.80421396041095
 21
-1524.2884684231999
  0
LINE
  8
lay-2
 62
    2
 10
-356.80421396041095
 20
-1518.2884684231999
 11
-446.80421396041095
 21
-1518.2884684231999
  0
CIRCLE
  8
lay-2
 62
    2
 10
-351.80421396041095
 20
-1513.2884684231999
 40
5.0
  0
LINE
  8
lay-2
 62
    2
 10
23.195786039589144
 20
-1858.2884684232001
 11
-1.8042139604108542
 21
-1858.2884684232001
  0
LINE
  8
lay-2
 62
    2
 10
-1.8042139604108542
 20
-1858.2884684232001
 11
-1.8042139604108536
 21
-1848.2884684232001
  0
LINE
  8
lay-2
 62
    2
 10
-1.8042139604108547
 20
-1848.2884684232001
 11
23.195786039589144
 21
-1848.2884684232001
  0
LINE
  8
lay-2
 62
    2
 10
1023.1957860395894
 20
-1858.2884684231999
 11
1048.1957860395894
 21
-1858.2884684231999
  0
LINE
  8
lay-2
 62
    2
 10
1048.1957860395894
 20
-1858.2884684231999
 11
1048.1957860395894
 21
-1848.2884684231999
  0
LINE
  8
lay-2
 62
    2
 10
1048.1957860395894
 20
-1848.2884684231999
 11
1023.1957860395894
 21
-1848.2884684231999
  0
CIRCLE
  8
lay-2
 62
    2
 10
223.19578603958942
 20
-1845.2884684232001
 40
3.0
  0
CIRCLE
  8
lay-2
 62
    2
 10
23.195786039589422
 20
-1845.2884684232001
 40
3.0
  0
CIRCLE
  8
lay-2
 62
    2
 10
423.19578603958939
 20
-1845.2884684232001
 40
3.0
  0
CIRCLE
  8
lay-2
 62
    2
 10
623.19578603958939
 20
-1845.2884684232001
 40
3.0
  0
CIRCLE
  8
lay-2
 62
    2
 10
823.19578603958939
 20
-1845.2884684232001
 40
3.0
  0
CIRCLE
  8
lay-2
 62
    2
 10
1023.1957860395894
 20
-1845.2884684232001
 40
3.0
  0
LINE
  8
lay-2
 62
    2
 10
-446.80421396041095
 20
-1853.2884683995039
 11
-446.80421396041095
 21
-1513.2884683995039
  0
LINE
  8
lay-2
 62
    2
 10
-456.80421396041095
 20
-1513.2884683453269
 11
-456.80421396041095
 21
-1853.2884683453271
  0
LINE
  8
lay-2
 62
    2
 10
-456.80421396041095
 20
-1848.2884684232001
 11
-546.80421396041095
 21
-1848.2884684232001
  0
LINE
  8
lay-2
 62
    2
 10
-456.80421396041095
 20
-1842.2884684232001
 11
-546.80421396041095
 21
-1842.2884684232001
  0
ARC
  8
lay-2
 62
    2
 10
-451.80421396041095
 20
-1853.2884684232001
 40
5.0
 50
179.99999999999966
 51
360.0
  0
LINE
  8
lay-2
 62
    2
 10
-456.80421396041095
 20
-1524.2884684231999
 11
-546.80421396041095
 21
-1524.2884684231999
  0
LINE
  8
lay-2
 62
    2
 10
-456.80421396041095
 20
-1518.2884684231999
 11
-546.80421396041095
 21
-1518.2884684231999
  0
CIRCLE
  8
lay-2
 62
    2
 10
-451.80421396041095
 20
-1513.2884684231999
 40
5.0
  0
LINE
  8
lay-2
 62
    2
 10
-546.80421396041095
 20
-1853.2884683995039
 11
-546.80421396041095
 21
-1513.2884683995039
  0
LINE
  8
lay-2
 62
    2
 10
-556.80421396041095
 20
-1513.2884683453269
 11
-556.80421396041095
 21
-1853.2884683453271
  0
LINE
  8
lay-2
 62
    2
 10
-556.80421396041095
 20
-1848.2884684232001
 11
-646.80421396041095
 21
-1848.2884684232001
  0
LINE
  8
lay-2
 62
    2
 10
-556.80421396041095
 20
-1842.2884684232001
 11
-646.80421396041095
 21
-1842.2884684232001
  0
ARC
  8
lay-2
 62
    2
 10
-551.80421396041095
 20
-1853.2884684232001
 40
5.0
 50
179.99999999999966
 51
360.0
  0
LINE
  8
lay-2
 62
    2
 10
-556.80421396041095
 20
-1524.2884684231999
 11
-646.80421396041095
 21
-1524.2884684231999
  0
LINE
  8
lay-2
 62
    2
 10
-556.80421396041095
 20
-1518.2884684231999
 11
-646.80421396041095
 21
-1518.2884684231999
  0
CIRCLE
  8
lay-2
 62
    2
 10
-551.80421396041095
 20
-1513.2884684231999
 40
5.0
  0
LINE
  8
lay-2
 62
    2
 10
-646.80421396041095
 20
-1853.2884683995039
 11
-646.80421396041095
 21
-1513.2884683995039
  0
LINE
  8
lay-2
 62
    2
 10
-656.80421396041095
 20
-1513.2884683453269
 11
-656.80421396041095
 21
-1853.2884683453271
  0
LINE
  8
lay-2
 62
    2
 10
-656.80421396041095
 20
-1848.2884684232001
 11
-746.80421396041095
 21
-1848.2884684232001
  0
LINE
  8
lay-2
 62
    2
 10
-656.80421396041095
 20
-1842.2884684232001
 11
-746.80421396041095
 21
-1842.2884684232001
  0
ARC
  8
lay-5
 10
-651.80421396041095
 20
-1853.2884684232001
 40
5.0
 50
179.99999999999966
 51
360.0
  0
LINE
  8
lay-2
 62
    2
 10
-656.80421396041095
 20
-1524.2884684231999
 11
-746.80421396041095
 21
-1524.2884684231999
  0
LINE
  8
lay-2
 62
    2
 10
-656.80421396041095
 20
-1518.2884684231999
 11
-746.80421396041095
 21
-1518.2884684231999
  0
CIRCLE
  8
lay-2
 62
    2
 10
-651.80421396041095
 20
-1513.2884684231999
 40
5.0
  0
LINE
  8
lay-2
 62
    2
 10
-746.80421396041095
 20
-1853.2884683995039
 11
-746.80421396041095
 21
-1513.2884683995039
  0
LINE
  8
lay-2
 62
    2
 10
-756.80421396041095
 20
-1513.2884683453269
 11
-756.80421396041095
 21
-1853.2884683453271
  0
LINE
  8
lay-2
 62
    2
 10
-756.80421396041095
 20
-1848.2884684232001
 11
-846.80421396041095
 21
-1848.2884684232001
  0
LINE
  8
lay-2
 62
    2
 10
-756.80421396041095
 20
-1842.2884684232001
 11
-846.80421396041095
 21
-1842.2884684232001
  0
ARC
  8
lay-5
 10
-751.80421396041095
 20
-1853.2884684232001
 40
5.0
 50
179.99999999999966
 51
360.0
  0
LINE
  8
lay-2
 62
    2
 10
-756.80421396041095
 20
-1524.2884684231999
 11
-846.80421396041095
 21
-1524.2884684231999
  0
LINE
  8
lay-2
 62
    2
 10
-756.80421396041095
 20
-1518.2884684231999
 11
-846.80421396041095
 21
-1518.2884684231999
  0
CIRCLE
  8
lay-2
 62
    2
 10
-751.80421396041095
 20
-1513.2884684231999
 40
5.0
  0
TEXT
  8
lay-6
 10
1553.5731201171875
 20
-1742.21826171875
 40
50.0
  1
Q.S. 11 %%c 6 Lg. 1000mm
 41
0.80000000000000004
  0
LINE
  8
lay-2
 62
    2
 10
-846.80421396041095
 20
-1853.2884683995039
 11
-846.80421396041095
 21
-1513.2884683995039
  0
LINE
  8
lay-2
 62
    2
 10
-856.80421396041095
 20
-1513.2884683453269
 11
-856.80421396041095
 21
-1853.2884683453271
  0
LINE
  8
lay-2
 62
    2
 10
-856.80421396041095
 20
-1848.2884684232001
 11
-946.80421396041095
 21
-1848.2884684232001
  0
LINE
  8
lay-2
 62
    2
 10
-856.80421396041095
 20
-1842.2884684232001
 11
-946.80421396041095
 21
-1842.2884684232001
  0
ARC
  8
lay-2
 62
    2
 10
-851.80421396041095
 20
-1853.2884684232001
 40
5.0
 50
179.99999999999966
 51
360.0
  0
LINE
  8
lay-2
 62
    2
 10
-856.80421396041095
 20
-1524.2884684231999
 11
-946.80421396041095
 21
-1524.2884684231999
  0
LINE
  8
lay-2
 62
    2
 10
-856.80421396041095
 20
-1518.2884684231999
 11
-946.80421396041095
 21
-1518.2884684231999
  0
CIRCLE
  8
lay-2
 62
    2
 10
-851.80421396041095
 20
-1513.2884684231999
 40
5.0
  0
LINE
  8
lay-2
 62
    2
 10
-946.80421396041095
 20
-1853.2884683995039
 11
-946.80421396041095
 21
-1513.2884683995039
  0
LINE
  8
lay-2
 62
    2
 10
-956.80421396041095
 20
-1513.2884683453269
 11
-956.80421396041095
 21
-1853.2884683453271
  0
LINE
  8
lay-2
 62
    2
 10
-956.80421396041095
 20
-1848.2884684232001
 11
-1046.8042139604108
 21
-1848.2884684232001
  0
LINE
  8
lay-2
 62
    2
 10
-956.80421396041095
 20
-1842.2884684232001
 11
-1046.8042139604108
 21
-1842.2884684232001
  0
ARC
  8
lay-2
 62
    2
 10
-951.80421396041095
 20
-1853.2884684232001
 40
5.0
 50
179.99999999999966
 51
360.0
  0
LINE
  8
lay-2
 62
    2
 10
-956.80421396041095
 20
-1524.2884684231999
 11
-1046.8042139604108
 21
-1524.2884684231999
  0
LINE
  8
lay-2
 62
    2
 10
-956.80421396041095
 20
-1518.2884684231999
 11
-1046.8042139604108
 21
-1518.2884684231999
  0
CIRCLE
  8
lay-2
 62
    2
 10
-951.80421396041095
 20
-1513.2884684231999
 40
5.0
  0
LINE
  8
lay-2
 62
    2
 10
-1046.8042139604108
 20
-1853.2884683995039
 11
-1046.8042139604108
 21
-1513.2884683995039
  0
LINE
  8
lay-2
 62
    2
 10
-1056.8042139604108
 20
-1513.2884683453269
 11
-1056.8042139604108
 21
-1853.2884683453271
  0
LINE
  8
lay-2
 62
    2
 10
-1056.8042139604108
 20
-1848.2884684232001
 11
-1146.8042139604108
 21
-1848.2884684232001
  0
LINE
  8
lay-2
 62
    2
 10
-1056.8042139604108
 20
-1842.2884684232001
 11
-1146.8042139604108
 21
-1842.2884684232001
  0
ARC
  8
lay-2
 62
    2
 10
-1051.8042139604108
 20
-1853.2884684232001
 40
5.0
 50
179.99999999999966
 51
360.0
  0
LINE
  8
lay-2
 62
    2
 10
-1056.8042139604108
 20
-1524.2884684231999
 11
-1146.8042139604108
 21
-1524.2884684231999
  0
LINE
  8
lay-2
 62
    2
 10
-1056.8042139604108
 20
-1518.2884684231999
 11
-1146.8042139604108
 21
-1518.2884684231999
  0
CIRCLE
  8
lay-2
 62
    2
 10
-1051.8042139604108
 20
-1513.2884684231999
 40
5.0
  0
LINE
  8
lay-2
 62
    2
 10
-1146.8042139604108
 20
-1853.2884683995039
 11
-1146.8042139604108
 21
-1513.2884683995039
  0
LINE
  8
lay-2
 62
    2
 10
-1156.8042139604108
 20
-1513.2884683453269
 11
-1156.8042139604108
 21
-1853.2884683453271
  0
ARC
  8
lay-2
 62
    2
 10
-1151.8042139604108
 20
-1853.2884684232001
 40
5.0
 50
179.99999999999966
 51
360.0
  0
CIRCLE
  8
lay-2
 62
    2
 10
-1151.8042139604108
 20
-1513.2884684231999
 40
5.0
  0
LINE
  8
lay-2
 62
    2
 10
-1166.8042139604111
 20
-1842.2884684232001
 11
-1156.8042139604111
 21
-1842.2884684232001
  0
LINE
  8
lay-2
 62
    2
 10
-1156.8042139604111
 20
-1848.2884684232001
 11
-1166.8042139604111
 21
-1848.2884684232001
  0
LINE
  8
lay-2
 62
    2
 10
-1166.8042139604111
 20
-1518.2884684231999
 11
-1156.8042139604111
 21
-1518.2884684231999
  0
ENDSEC
  0
EOF
